<?xml version="1.0" standalone="no"?>
<!DOCTYPE svg PUBLIC "-//W3C//DTD SVG 1.1//EN" "http://www.w3.org/Graphics/SVG/1.1/DTD/svg11.dtd" >
<svg xmlns="http://www.w3.org/2000/svg">
<metadata>Generated by IcoMoon</metadata>
<defs>
<font id="icomoon" horiz-adv-x="1024">
<font-face units-per-em="1024" ascent="960" descent="-64" />
<missing-glyph horiz-adv-x="1024" />
<glyph unicode="&#x20;" horiz-adv-x="512" d="" />
<glyph unicode="&#xe900;" glyph-name="nav-zoznam-titulov" horiz-adv-x="1106" d="M552.96 776.781v-0.472c-17.641 16.017-44.54 37.99-79.95 59.88-61.129 37.796-160.759 82.851-288.233 82.851h-32.4v-142.259h-152.377v-799.821h1105.92v799.821h-552.96zM64.8 41.017v671.709h87.577v-580.192h32.4c124.55 0 219.707-47.677 280.864-91.517h-400.842zM520.561 80.216c-23.72 18.26-45.957 32.379-63.357 42.426-75.318 43.512-155.92 68.002-240.026 72.991v658.276c77.347-5.165 151.036-28.917 219.481-70.802 42.189-25.817 70.914-51.965 83.902-64.817v-638.074zM1041.121 41.017h-455.762v671.709h455.762v-671.709zM961.147 596.825h-292.745v-64.057h292.745v64.057zM668.402 473.199h292.745v-64.057h-292.745v64.057zM961.147 349.569h-292.745v-64.057h292.745v64.057zM668.402 225.939h292.745v-64.057h-292.745v64.057z" />
<glyph unicode="&#xe901;" glyph-name="nav-statistiky" horiz-adv-x="1106" d="M581.759 939.52h28.799c115.503 0 224.362-45.247 306.52-127.404s127.402-191.013 127.402-306.518v-28.799h-462.721v462.721zM639.361 880.829v-346.429h346.427c-14.033 184.594-161.833 332.394-346.427 346.429zM495.362 822.4h28.799v-403.199h403.198v-28.799c0-239.268-193.794-433.922-431.997-433.922-238.789 0-433.922 195.113-433.922 433.922 0 238.203 194.655 431.998 433.922 431.998zM251.313 675.176l215.246-215.249v303.788c-81.782-6.186-156.341-38.498-215.246-88.539zM210.39 634.641c-56.891-65.612-91.35-150.994-91.35-244.239 0-93.409 34.22-178.967 90.766-244.826l244.825 244.826-244.242 244.239zM250.535 104.845c65.86-56.545 151.417-90.767 244.827-90.767 196.805 0 358.629 153.42 373.314 347.542h-361.386l-256.754-256.774z" />
<glyph unicode="&#xe902;" glyph-name="nav-dokumenty" horiz-adv-x="1106" d="M715.342 929.908l192.414-182.444c21.811-20.684 34.324-49.81 34.324-79.908v-621.558c0-60.654-49.234-109.998-109.752-109.998h-558.736c-60.517 0-109.752 49.345-109.752 109.998v804.002c0 60.654 49.235 110 109.752 110h366.326c28.172 0 54.96-10.686 75.424-30.092zM700.625 720h148.988l-158.966 150.728v-140.728c0-5.514 4.477-10 9.978-10zM273.592-4.002h558.736c27.509 0 49.889 22.434 49.889 50v614.002h-181.592c-38.511 0-69.841 31.402-69.841 70v170h-357.192c-27.508 0-49.887-22.43-49.887-50v-804.002c0-27.566 22.379-50 49.887-50zM327.452 560h439.008c16.531 0 29.934-13.434 29.934-29.998 0-16.568-13.402-30.003-29.934-30.003h-439.008c-16.531 0-29.932 13.435-29.932 30.003 0 16.564 13.402 29.998 29.932 29.998zM766.46 399.999h-439.008c-16.531 0-29.932-13.431-29.932-29.999s13.402-29.999 29.932-29.999h439.008c16.531 0 29.934 13.431 29.934 29.999s-13.402 29.999-29.934 29.999zM327.452 240.001h145.112c16.531 0 29.932-13.435 29.932-29.999 0-16.568-13.402-30.003-29.932-30.003h-145.112c-16.531 0-29.932 13.435-29.932 30.003 0 16.564 13.402 29.999 29.932 29.999z" />
<glyph unicode="&#xe903;" glyph-name="nav-dashboard" horiz-adv-x="1106" d="M431.158 412.893h-283.045c-47.783 0-86.683 38.9-86.683 86.68v353.264c0 47.783 38.9 86.683 86.683 86.683h283.045c47.783 0 86.682-38.9 86.682-86.683v-353.264c0-47.78-38.9-86.68-86.682-86.68zM148.113 869.303c-9.093 0-16.466-7.373-16.466-16.466v-353.264c0-9.093 7.373-16.466 16.466-16.466h283.045c9.093 0 16.466 7.373 16.466 16.466v353.264c0 9.093-7.373 16.466-16.466 16.466h-283.045zM674.755 553.326h283.042c47.784 0 86.684 38.9 86.684 86.683v212.828c0 47.783-38.9 86.683-86.684 86.683h-283.042c-47.784 0-86.684-38.9-86.684-86.683v-212.828c0-47.783 38.9-86.683 86.684-86.683zM658.289 852.837c0 9.093 7.373 16.466 16.466 16.466h283.042c9.093 0 16.466-7.373 16.466-16.466v-212.828c0-9.093-7.373-16.466-16.466-16.466h-283.042c-9.093 0-16.466 7.373-16.466 16.466v212.828zM674.755-43.52h283.042c47.784 0 86.684 38.904 86.684 86.684v353.264c0 47.784-38.9 86.684-86.684 86.684h-283.042c-47.784 0-86.684-38.9-86.684-86.684v-353.264c0-47.78 38.9-86.684 86.684-86.684zM658.289 396.427c0 9.093 7.373 16.466 16.466 16.466h283.042c9.093 0 16.466-7.373 16.466-16.466v-353.264c0-9.093-7.373-16.466-16.466-16.466h-283.042c-9.093 0-16.466 7.373-16.466 16.466v353.264zM148.113-43.52h283.045c47.783 0 86.682 38.9 86.682 86.684v212.828c0 47.784-38.9 86.684-86.682 86.684h-283.045c-47.783 0-86.683-38.9-86.683-86.684v-212.828c0-47.784 38.9-86.684 86.683-86.684zM131.647 255.992c0 9.093 7.373 16.466 16.466 16.466h283.045c9.093 0 16.466-7.373 16.466-16.466v-212.828c0-9.093-7.373-16.466-16.466-16.466h-283.045c-9.093 0-16.466 7.373-16.466 16.466v212.828z" />
<glyph unicode="&#xe904;" glyph-name="help" d="M796.453 22.287c-84.198-56.261-183.188-86.287-284.453-86.287-135.744 0.154-265.884 54.148-361.869 150.133s-149.977 226.123-150.131 361.866c0 101.264 30.028 200.254 86.287 284.453s136.223 149.822 229.779 188.574c93.556 38.752 196.501 48.891 295.82 29.136s190.55-68.519 262.149-140.124c71.607-71.604 120.371-162.834 140.127-262.152s9.618-202.265-29.133-295.82c-38.758-93.558-104.382-173.518-188.577-229.779zM758.528 816.951c-72.975 48.758-158.766 74.782-246.528 74.782-117.644-0.135-230.431-46.929-313.618-130.116s-129.98-195.973-130.116-313.618c0-87.762 26.025-173.553 74.783-246.527 48.758-72.967 118.060-129.843 199.142-163.43s170.301-42.372 256.377-25.249c86.075 17.123 165.138 59.385 227.2 121.439 62.054 62.054 104.316 141.124 121.439 227.199s8.331 175.296-25.249 256.378c-33.587 81.082-90.463 150.383-163.43 199.142zM375.419 550.415c9.053 0 17.735 3.596 24.136 9.997s9.997 15.083 9.997 24.136c0 27.159 10.789 53.204 29.992 72.408s45.25 29.992 72.408 29.992c27.158 0 53.204-10.789 72.408-29.992s29.992-45.249 29.992-72.408c0-54.135-25.702-79.838-58.266-112.401-23.989-19.438-43.429-43.896-56.951-71.653s-20.798-58.141-21.317-89.013c0-9.053 3.596-17.735 9.998-24.136s15.083-9.998 24.136-9.998c9.053 0 17.734 3.596 24.136 9.998s9.997 15.083 9.997 24.136c0 54.135 25.703 79.838 58.266 112.401 23.989 19.438 43.429 43.896 56.95 71.654s20.798 58.141 21.317 89.012c0 45.264-17.981 88.673-49.987 120.68s-75.415 49.987-120.679 49.987c-45.264 0-88.673-17.981-120.68-49.987s-49.987-75.416-49.987-120.68c0-9.053 3.596-17.734 9.997-24.136s15.083-9.997 24.136-9.997zM511.99 140.8c18.851 0 34.134 15.28 34.134 34.136 0 18.849-15.282 34.128-34.134 34.128s-34.134-15.28-34.134-34.128c0-18.856 15.282-34.136 34.134-34.136z" />
<glyph unicode="&#xe905;" glyph-name="chevron-up" d="M55.167 264.84l60.34-60.34 396.497 396.497 396.498-396.497 60.339 60.34-456.837 456.837z" />
<glyph unicode="&#xe906;" glyph-name="chevron-right" d="M286.173-8.832l-60.34 60.339 396.497 396.496-396.497 396.496 60.34 60.34 456.836-456.836z" />
<glyph unicode="&#xe907;" glyph-name="chevron-left" d="M737.827-8.832l60.34 60.339-396.497 396.496 396.497 396.496-60.34 60.34-456.837-456.836z" />
<glyph unicode="&#xe908;" glyph-name="chevron-down" d="M55.167 631.16l60.34 60.34 396.497-396.497 396.498 396.497 60.339-60.34-456.837-456.836z" />
<glyph unicode="&#xe909;" glyph-name="caret-up" d="M548.204 667.796l388.393-388.393c32.253-32.253 9.411-87.404-36.205-87.404h-776.784c-45.614 0-68.458 55.15-36.204 87.404l388.393 388.393c19.995 19.995 52.412 19.995 72.407 0z" />
<glyph unicode="&#xe90a;" glyph-name="caret-right" d="M731.796 411.796l-388.393-388.393c-32.254-32.253-87.404-9.411-87.404 36.205v776.784c0 45.614 55.15 68.458 87.404 36.204l388.393-388.393c19.995-19.995 19.995-52.412 0-72.407z" />
<glyph unicode="&#xe90b;" glyph-name="caret-left" d="M292.204 411.796l388.393-388.393c32.253-32.253 87.404-9.411 87.404 36.205v776.784c0 45.614-55.15 68.458-87.404 36.204l-388.393-388.393c-19.995-19.995-19.995-52.412 0-72.407z" />
<glyph unicode="&#xe90c;" glyph-name="caret-down" d="M475.796 228.204l-388.393 388.393c-32.254 32.254-9.411 87.404 36.204 87.404h776.784c45.615 0 68.458-55.15 36.205-87.404l-388.393-388.393c-19.995-19.995-52.412-19.995-72.407 0z" />
<glyph unicode="&#xe90d;" glyph-name="chat" horiz-adv-x="1103" d="M816.825 638.289c-41.811 184.1-206.608 321.707-403.271 321.711-228.219 0-413.523-185.311-413.523-413.552 0.135-73.037 19.968-144.512 56.738-207.516l-56.038-168.174c-3.593-10.78 6.658-21.033 17.435-17.443l160.836 53.6c68.935-47.724 150.562-73.866 234.538-73.992 5.705 0 11.382 0.116 17.032 0.345 57.978-116.856 178.54-197.266 317.731-197.268 71.979 0.106 141.944 22.516 201.033 63.421l137.86-45.942c9.236-3.078 18.024 5.711 14.944 14.95l-48.033 144.15c31.518 54.004 48.516 115.267 48.632 177.871 0 172.19-123.043 315.874-285.915 347.839zM821.721 613.122c147.444-33.355 257.386-165.051 257.396-322.662-0.116-60.247-16.672-119.3-47.884-170.811-1.796-2.966-2.204-6.552-1.111-9.856l42.126-126.434-120.586 40.186c-3.6 1.205-7.554 0.624-10.634-1.607-56.155-40.411-123.561-62.297-192.748-62.297-126.667 0.004-236.593 71.020-292.183 175.451 208.272 21.339 370.979 197.51 370.979 411.368 0 22.691-1.831 44.96-5.356 66.662zM799.502 546.464c0-213.325-172.621-385.953-385.934-385.959-80.717 0-159.358 25.533-224.874 72.678-3.591 2.605-8.205 3.283-12.404 1.875l-140.685-46.883 49.146 147.509c1.275 3.854 0.801 8.038-1.296 11.496-36.413 60.097-55.728 128.992-55.863 199.28 0.014 213.329 172.65 385.965 385.961 385.959 213.319 0 385.948-172.63 385.948-385.955zM354.462 536.615c0 16.313-13.225 29.538-29.538 29.538s-29.538-13.225-29.538-29.538c0-16.313 13.225-29.538 29.538-29.538s29.538 13.225 29.538 29.538zM452.923 536.615c0 16.313-13.225 29.538-29.538 29.538s-29.538-13.225-29.538-29.538c0-16.313 13.225-29.538 29.538-29.538s29.538 13.225 29.538 29.538zM521.846 507.077c-16.313 0-29.538 13.225-29.538 29.538s13.225 29.538 29.538 29.538c16.313 0 29.538-13.225 29.538-29.538s-13.225-29.538-29.538-29.538z" />
<glyph unicode="&#xe90e;" glyph-name="close-circle" d="M512-64c282.77 0 512 229.23 512 512s-229.23 512-512 512c-282.77 0-512-229.23-512-512s229.23-512 512-512zM638.040 283.429l-126.040 126.040-126.043-126.040-38.528 38.532 126.043 126.040-126.043 126.040 38.528 38.532 126.043-126.040 126.040 126.040 38.532-38.532-126.040-126.040 126.040-126.040-38.532-38.532z" />
<glyph unicode="&#xe90f;" glyph-name="cross" d="M508.9 343.222l352.914-352.915 107.885 107.885-352.915 352.914 352.915 352.915-107.885 107.884-352.914-352.915-352.916 352.916-107.884-107.884 352.916-352.916-352.916-352.915 107.884-107.885 352.916 352.916z" />
<glyph unicode="&#xe910;" glyph-name="arrow-down" horiz-adv-x="768" d="M8.255 374.199c5.507 6.129 13.074 9.569 20.968 9.536h153.815c11.999 0 21.725 10.541 21.725 23.542v521.18c0 17.421 13.033 31.543 29.111 31.543h299.377c16.078 0 29.111-14.122 29.111-31.543v-521.18c0-13.001 9.727-23.542 21.725-23.542h154.249c16.077 0.329 29.354-13.523 29.658-30.94 0.152-8.719-3.035-17.119-8.801-23.201l-354.556-384.177c-5.394-5.937-12.735-9.322-20.424-9.417-7.839-0.031-15.356 3.364-20.855 9.417l-354.558 384.177c-11.518 12.154-11.762 32.123-0.546 44.605z" />
<glyph unicode="&#xe911;" glyph-name="arrow-up" horiz-adv-x="768" d="M8.255 521.801c5.507-6.129 13.074-9.569 20.968-9.536h153.815c11.999 0 21.725-10.541 21.725-23.542v-521.18c0-17.421 13.033-31.543 29.111-31.543h299.377c16.078 0 29.111 14.122 29.111 31.543v521.18c0 13.001 9.727 23.542 21.725 23.542h154.249c16.077-0.329 29.354 13.523 29.658 30.94 0.152 8.719-3.035 17.119-8.801 23.201l-354.556 384.177c-5.394 5.937-12.735 9.322-20.424 9.417-7.839 0.031-15.356-3.363-20.855-9.417l-354.558-384.177c-11.518-12.154-11.762-32.123-0.546-44.605z" />
<glyph unicode="&#xe912;" glyph-name="download" d="M230.15 473.856c-14.3-14.3-14.3-37.412 0-51.712l255.963-256c14.044-14.044 37.269-14.52 51.748 0l256 256c14.3 14.3 14.3 37.412 0 51.712s-37.412 14.299-51.712 0l-193.572-193.572v643.144c0 20.187-16.384 36.571-36.572 36.571s-36.571-16.384-36.571-36.571v-643.144l-193.572 193.572c-14.3 14.299-37.413 14.299-51.712 0zM1024 9.144v146.284c0 20.188-16.384 36.572-36.572 36.572s-36.572-16.384-36.572-36.572v-146.284h-877.713v146.284c0 20.188-16.384 36.572-36.571 36.572s-36.571-16.384-36.571-36.572v-146.284c0-40.34 32.805-73.144 73.143-73.144h877.713c40.34 0 73.144 32.804 73.144 73.144z" />
<glyph unicode="&#xe913;" glyph-name="check" horiz-adv-x="1408" d="M1343.373 833.287l-831.36-831.356-447.357 447.356 126.714 126.714 320.643-320.643 704.644 704.643 126.716-126.713z" />
<glyph unicode="&#xe914;" glyph-name="delete" horiz-adv-x="967" d="M297.556 863.289v-52.178h-260.359c-9.865 0-19.326-3.919-26.302-10.894s-10.895-16.437-10.895-26.302c0-9.866 3.919-19.326 10.895-26.302s16.437-10.895 26.302-10.895h64.293l42.849-651.686c2.371-38.036 19.012-73.779 46.597-100.079s64.081-41.216 102.19-41.762h380.894c38.451 0.051 75.44 14.74 103.447 41.091 28.006 26.345 44.925 62.373 47.32 100.75l40.966 651.686h64.165c9.865 0 19.325 3.919 26.3 10.895s10.894 16.436 10.894 26.302c0 9.865-3.92 19.326-10.894 26.302s-16.435 10.894-26.3 10.894h-260.398v49.698c0.011 25.883-10.098 50.744-28.166 69.276-18.074 18.532-42.667 29.268-68.545 29.915h-178.542c-25.452-0.629-49.687-11.020-67.689-29.022s-28.393-42.237-29.022-67.689zM371.949 811.213h223.177v49.596c0 5.919-2.35 11.596-6.537 15.781-4.181 4.185-9.859 6.537-15.781 6.537h-178.542c-5.919 0-11.596-2.352-15.781-6.537s-6.537-9.862-6.537-15.781v-49.596zM216.252 89.498l-38.188 647.22 612.999-2.48-40.169-644.741c-1.377-19.479-10.069-37.712-24.326-51.046-14.256-13.34-33.024-20.793-52.548-20.867h-380.894c-19.557-0.046-38.395 7.373-52.677 20.73-14.282 13.363-22.935 31.664-24.197 51.183zM606.145 152.656c6.952-6.946 16.338-10.906 26.163-11.036 9.825 0.131 19.211 4.090 26.158 11.036 6.952 6.952 10.911 16.338 11.036 26.163v396.762c0 9.865-3.92 19.326-10.894 26.302s-16.435 10.894-26.3 10.894c-9.865 0-19.325-3.919-26.305-10.894-6.975-6.976-10.894-16.437-10.894-26.302v-396.762c0.131-9.825 4.090-19.211 11.036-26.163zM334.752 141.619c-9.825 0.131-19.212 4.090-26.16 11.036-6.948 6.952-10.908 16.338-11.036 26.163v396.762c0 9.865 3.919 19.326 10.895 26.302s16.436 10.894 26.302 10.894c9.865 0 19.326-3.919 26.301-10.894s10.895-16.437 10.895-26.302v-396.762c-0.129-9.825-4.089-19.211-11.036-26.163-6.948-6.946-16.335-10.906-26.16-11.036zM457.37 152.656c6.948-6.946 16.335-10.906 26.16-11.036 9.825 0.131 19.212 4.090 26.16 11.036 6.948 6.952 10.908 16.338 11.037 26.163v396.762c0 9.865-3.919 19.326-10.895 26.302s-16.437 10.894-26.302 10.894c-9.865 0-19.326-3.919-26.302-10.894s-10.895-16.437-10.895-26.302v-396.762c0.129-9.825 4.089-19.211 11.037-26.163z" />
<glyph unicode="&#xe915;" glyph-name="chevron-left-border-full" d="M426.667 960h170.667c235.639 0 426.667-191.025 426.667-426.667v-170.667c0-235.639-191.027-426.667-426.667-426.667h-170.667c-235.642 0-426.667 191.027-426.667 426.667v170.667c0 235.642 191.025 426.667 426.667 426.667zM641.293 617.373l-45.257 45.255-235.96-235.961 235.96-235.959 45.257 45.252-190.707 190.707 190.707 190.706z" />
<glyph unicode="&#xe916;" glyph-name="chevron-left-border" d="M426.667 896c-200.295 0-362.667-162.371-362.667-362.667v-170.667c0-200.294 162.371-362.667 362.667-362.667h170.667c200.294 0 362.667 162.372 362.667 362.667v170.667c0 200.295-162.372 362.667-362.667 362.667h-170.667zM0 533.333c0 235.642 191.025 426.667 426.667 426.667h170.667c235.639 0 426.667-191.025 426.667-426.667v-170.667c0-235.639-191.027-426.667-426.667-426.667h-170.667c-235.642 0-426.667 191.027-426.667 426.667v170.667zM641.293 617.373l-45.257 45.255-235.96-235.961 235.96-235.959 45.257 45.252-190.707 190.707 190.707 190.706z" />
<glyph unicode="&#xe917;" glyph-name="chevron-right-border-full" d="M426.667 960c-235.642 0-426.667-191.025-426.667-426.667v-170.667c0-235.639 191.025-426.667 426.667-426.667h170.667c235.639 0 426.667 191.027 426.667 426.667v170.667c0 235.642-191.027 426.667-426.667 426.667h-170.667zM382.708 617.373l45.255 45.255 235.959-235.961-235.959-235.959-45.255 45.252 190.706 190.707-190.706 190.706z" />
<glyph unicode="&#xe918;" glyph-name="chevron-right-border" d="M426.667 896c-200.295 0-362.667-162.371-362.667-362.667v-170.667c0-200.294 162.371-362.667 362.667-362.667h170.667c200.294 0 362.667 162.372 362.667 362.667v170.667c0 200.295-162.372 362.667-362.667 362.667h-170.667zM0 533.333c0 235.642 191.025 426.667 426.667 426.667h170.667c235.639 0 426.667-191.025 426.667-426.667v-170.667c0-235.639-191.027-426.667-426.667-426.667h-170.667c-235.642 0-426.667 191.027-426.667 426.667v170.667zM382.708 617.373l45.255 45.255 235.959-235.961-235.959-235.959-45.255 45.252 190.706 190.707-190.706 190.706z" />
<glyph unicode="&#xe919;" glyph-name="chevron-up-border-full" d="M426.667 960c-235.642 0-426.667-191.025-426.667-426.667v-170.667c0-235.639 191.025-426.667 426.667-426.667h170.667c235.639 0 426.667 191.027 426.667 426.667v170.667c0 235.642-191.027 426.667-426.667 426.667h-170.667zM321.297 297.374l-45.255 45.252 235.962 235.962 235.959-235.962-45.257-45.252-190.703 190.703-190.708-190.703z" />
<glyph unicode="&#xe91a;" glyph-name="chevron-up-border" d="M426.667 896c-200.295 0-362.667-162.371-362.667-362.667v-170.667c0-200.294 162.371-362.667 362.667-362.667h170.667c200.294 0 362.667 162.372 362.667 362.667v170.667c0 200.295-162.372 362.667-362.667 362.667h-170.667zM0 533.333c0 235.642 191.025 426.667 426.667 426.667h170.667c235.639 0 426.667-191.025 426.667-426.667v-170.667c0-235.639-191.027-426.667-426.667-426.667h-170.667c-235.642 0-426.667 191.027-426.667 426.667v170.667zM321.297 297.374l-45.255 45.252 235.962 235.962 235.959-235.962-45.257-45.252-190.703 190.703-190.708-190.703z" />
<glyph unicode="&#xe91b;" glyph-name="chevron-down-border-full" d="M426.667 960h170.667c235.639 0 426.667-191.025 426.667-426.667v-170.667c0-235.639-191.027-426.667-426.667-426.667h-170.667c-235.642 0-426.667 191.027-426.667 426.667v170.667c0 235.642 191.025 426.667 426.667 426.667zM321.297 555.961l-45.255-45.254 235.962-235.964 235.959 235.964-45.257 45.254-190.703-190.704-190.708 190.704z" />
<glyph unicode="&#xe91c;" glyph-name="chevron-down-border" d="M426.667 896c-200.295 0-362.667-162.371-362.667-362.667v-170.667c0-200.294 162.371-362.667 362.667-362.667h170.667c200.294 0 362.667 162.372 362.667 362.667v170.667c0 200.295-162.372 362.667-362.667 362.667h-170.667zM0 533.333c0 235.642 191.025 426.667 426.667 426.667h170.667c235.639 0 426.667-191.025 426.667-426.667v-170.667c0-235.639-191.027-426.667-426.667-426.667h-170.667c-235.642 0-426.667 191.027-426.667 426.667v170.667zM321.297 555.961l-45.255-45.254 235.962-235.964 235.959 235.964-45.257 45.254-190.703-190.704-190.708 190.704z" />
<glyph unicode="&#xe91d;" glyph-name="preview" horiz-adv-x="1621" d="M42.667 447.993c153.619 305.76 439.624 512.007 768 512.007 328.38 0 614.383-206.265 768-512.007-153.617-305.818-439.62-511.993-768-511.993-328.376 0-614.381 206.176-768 511.993zM188.489 447.993c141.679-238.426 375.052-384.002 622.177-384.002s480.495 145.576 622.174 384.002c-141.679 238.425-375.049 384-622.174 384s-480.503-145.575-622.177-384zM522.667 448.044c0 159.131 128.869 288 288 288 159.053 0 288-128.869 288-288 0-159.072-128.947-288-288-288-159.131 0-288 128.928-288 288zM650.673 448.044c0-88.395 71.618-160.013 159.994-160.013 88.38 0 159.991 71.618 159.991 160.013 0 88.376-71.612 159.994-159.991 159.994-88.376 0-159.994-71.618-159.994-159.994z" />
<glyph unicode="&#xe91e;" glyph-name="edit" d="M42.108-57.541c-9.297 4.235-17.585 10.394-24.312 18.081s-11.74 16.713-14.704 26.492c-2.963 9.772-3.81 20.070-2.483 30.193l25.68 196.242c2.347 17.758 10.471 34.254 23.12 46.939l522.897 522.897c0.559 0.617 1.134 1.221 1.725 1.812 0.579 0.577 1.17 1.14 1.772 1.686l150.186 150.185c14.779 14.738 34.798 23.014 55.673 23.014 20.868 0 40.887-8.276 55.669-23.014l163.635-163.64c14.738-14.779 23.018-34.798 23.018-55.67s-8.28-40.891-23.018-55.67l-150.843-150.848c-0.688-0.729-1.397-1.437-2.128-2.124l-523.607-523.611c-12.682-12.646-29.179-20.773-46.939-23.113l-196.24-25.68c-3.15-0.417-6.323-0.622-9.5-0.622-10.214 0.022-20.305 2.224-29.602 6.451zM609.385 678.962l-484.775-484.775-20.1-153.659 153.66 20.1 484.779 484.773-133.563 133.56zM813.707 616.161l101.5 101.505-133.559 133.56-101.503-101.505 133.562-133.56z" />
<glyph unicode="&#xe91f;" glyph-name="date" d="M880.299 865.439h-120.149v17.067c0 9.053-3.595 17.735-9.995 24.136-6.406 6.401-15.087 9.997-24.138 9.997s-17.732-3.596-24.138-9.997c-6.4-6.401-9.995-15.083-9.995-24.136v-17.067h-359.765v17.067c0 9.053-3.596 17.735-9.998 24.136s-15.083 9.997-24.136 9.997c-9.053 0-17.735-3.596-24.136-9.997s-9.998-15.083-9.998-24.136v-17.067h-120.149c-38.084-0.090-74.583-15.259-101.513-42.189s-42.099-63.428-42.189-101.513v-598.698c0.090-38.087 15.259-74.581 42.189-101.513s63.428-42.098 101.513-42.189h736.597c38.087 0.091 74.581 15.258 101.513 42.189s42.098 63.425 42.189 101.513v598.698c-0.091 38.084-15.258 74.583-42.189 101.513s-63.425 42.099-101.513 42.189zM143.701 797.172h120.149v-17.067c0-9.053 3.596-17.735 9.998-24.136s15.083-9.998 24.136-9.998c9.053 0 17.735 3.597 24.136 9.998s9.998 15.083 9.998 24.136v17.067h359.765v-17.067c0-9.053 3.595-17.735 9.995-24.136 6.406-6.401 15.087-9.998 24.138-9.998s17.732 3.597 24.138 9.998c6.4 6.401 9.995 15.083 9.995 24.136v17.067h120.149c20.008 0 39.196-7.947 53.339-22.094 14.148-14.147 22.096-33.334 22.096-53.341v-80.896h-887.467v80.896c0 20.007 7.947 39.194 22.095 53.341s33.333 22.094 53.34 22.094v0zM880.299 46.239h-736.597c-10.022 0-19.944 1.991-29.186 5.871-9.243 3.874-17.62 9.552-24.643 16.703s-12.551 15.627-16.261 24.94c-3.71 9.307-5.527 19.268-5.345 29.286v449.535h887.467v-449.535c0.182-10.018-1.638-19.979-5.348-29.286-3.709-9.313-9.233-17.789-16.259-24.94-7.020-7.151-15.4-12.828-24.644-16.703-9.239-3.88-19.16-5.871-29.184-5.871v0z" />
<glyph unicode="&#xe920;" glyph-name="empty-placeholder" d="M488.428 824l-47.544 26c-5.194 2.8-8.39 8.2-8.39 14s3.196 11.2 8.39 14l47.544 26 25.969 47.6c2.796 5.2 8.19 8.4 13.984 8.4s11.187-3.2 13.984-8.4l25.969-47.6 47.544-26c5.194-2.8 8.39-8.2 8.39-14s-3.196-11.2-8.39-14l-47.544-26-25.969-47.6c-2.796-5.2-8.19-8.4-13.984-8.4s-11.187 3.2-13.984 8.4l-25.969 47.6zM514.198 884.6c-1.598-2.8-3.796-5-6.392-6.4l-25.97-14.2 25.97-14.2c2.796-1.6 4.994-3.8 6.392-6.4l14.183-25.999 14.183 25.999c1.598 2.801 3.796 5.001 6.392 6.4l25.969 14.2-25.969 14.2c-2.796 1.6-4.994 3.8-6.392 6.4l-14.183 26-14.183-26zM104.876 816c30.764 0 55.934 25.2 55.934 56s-25.171 56-55.934 56c-30.764 0-55.935-25.2-55.935-56s25.171-56 55.935-56zM104.876 896c13.184 0 23.972-10.8 23.972-24s-10.788-24-23.972-24c-13.185 0-23.972 10.8-23.972 24s10.787 24 23.972 24zM272.681 896h-31.962v-32h31.962v32zM784.081 624h-31.962v-32h31.962v32zM848.006 896h31.96v-32h-31.96v32zM32.96 580.601h-31.963v-32h31.963v32zM464.454 32h31.962v-32h-31.962v32zM304.642 87.996c0 30.804 25.171 56.004 55.934 56.004s55.934-25.2 55.934-56.004c0-30.797-25.17-55.996-55.934-55.996s-55.934 25.199-55.934 55.996zM336.604 87.996c0-13.193 10.787-23.996 23.972-23.996s23.972 10.803 23.972 23.996c0 13.201-10.787 24.004-23.972 24.004s-23.972-10.803-23.972-24.004zM775.691 46.003l-47.544 26.001-25.969 47.596c-2.796 5.2-8.19 8.4-13.984 8.4s-11.186-3.2-13.984-8.4l-25.969-47.596-47.544-26.001c-5.193-2.807-8.39-8.201-8.39-14.003s3.197-11.196 8.39-14.003l47.544-26.001 25.969-47.599c2.797-5.197 8.19-8.397 13.984-8.397s11.187 3.2 13.984 8.397l25.969 47.599 47.544 26.001c5.194 2.807 8.391 8.201 8.391 14.003s-3.197 11.196-8.391 14.003zM708.77 17.801c-2.598-1.399-4.795-3.601-6.393-6.4l-14.183-26.001-14.183 26.001c-1.399 2.603-3.596 4.796-6.392 6.4l-25.969 14.199 25.969 14.199c2.597 1.399 4.794 3.601 6.392 6.4l14.183 26.001 14.183-26.001c1.399-2.603 3.596-4.796 6.393-6.4l25.969-14.199-25.969-14.199zM911.932 595.8l110.071-220.599c1.195-2.201 1.801-4.6 1.997-7.2v-432h-31.966v424.4l-189.375 156.4c-4.395-20.8-5.593-55.2 19.977-90l84.303-79c3.191-3 4.992-7.2 4.992-11.6v-48c0-8.8-7.194-16-15.983-16-0.017-0.003-0.043-0.008-0.077-0.013s-0.077-0.010-0.137-0.016l-0.299-0.032c-3.388-0.339-22.033-2.202-36.241-19.939-18.78-23.4-22.776-65.2-11.589-121l-31.363-6.2c-5.193 26.201-7.391 49.801-6.592 70.601-6.992 0.8-16.181 1.6-27.368 1.999-0.799-35.599 4.195-128.198 70.717-150.402 6.596-2.202 10.991-8.397 10.991-15.198v-96h-31.967v85.001c-76.111 33.997-82.503 134.399-81.704 175.799-44.747-3.2-103.479-16.8-156.417-59-0.799-0.8-1.398-1.999-1.398-3.2v-22.6c0-8.798-7.192-16-15.981-16h-95.888c-8.789 0-15.981 7.202-15.981 16v20.2c0 1.6-0.799 2.8-2.197 3.6-37.356 20.4-105.077 50.4-188.379 57.2 0.2-15.4-0.599-38.4-5.793-63.2-11.186-53.998-37.356-91.4-76.31-108.799v-85.001h-31.962v96c0 6.997 4.395 12.996 10.987 15.198 66.323 22.204 71.716 112.402 71.117 147.402-9.19 0-18.378-0.201-27.767-0.8 0.599-20.4-1.798-43.4-6.792-68.8l-31.363 6.2c11.186 56.2 6.991 98.2-11.986 121.4-15.382 18.8-36.157 19.4-36.358 19.4-8.789 0-15.981 7.2-15.981 16v48c0 4.4 1.798 8.6 4.995 11.6l84.5 79.2c25.37 34.801 24.372 69.2 19.977 90l-189.378-156.4v-424.4h-31.963v432c0 2.6 0.599 5 1.798 7.2l111.070 220.599v172.2c0 5.2 2.397 10 6.592 13s9.589 3.801 14.383 2.2l26.969-8.999v25.8c0 8.6 6.792 15.6 15.382 16 38.355 1.4 128.649-0.2 195.971-16.4 54.336-13 106.475-33.399 155.218-60.599 57.333 40 122.856 66.599 190.377 76.8 43.749 6.6 88.496 6.6 132.645 0 7.793-1.201 13.588-7.8 13.588-15.8v-25.8l26.965 8.999c4.796 1.601 10.189 0.8 14.379-2.2 4.198-2.999 6.596-7.799 6.596-13v-172.2zM911.932 468l47.94-39.601-47.94 96v-56.399zM879.966 494.2v251.599l-15.974-5.4v-233l15.974-13.199zM160.812 508.2v232.2l-15.981 5.4v-250.8l15.981 13.2zM64.524 428.6l48.343 40v56l-48.343-96zM225.935 406.4c-0.399-0.6-1.199-1.4-1.798-2l-31.363-29.6v-86.601c43.948 0.4 120.659-2.599 179.59-16.8 48.742-11.6 95.688-29.2 140.035-52.4v491.599c-46.345 26-96.087 45.401-147.627 57.801-56.134 13.6-129.848 16.4-171.999 16v-249.801l26.369 21.6c3.596 3.2 8.591 4.4 13.385 3.4s8.79-4 10.988-8.399l0.064-0.138c2.148-4.564 35.052-74.516-17.644-144.662zM160.812 344.8l-16.98-15.799v-27.4c4.995-1.4 10.788-3.401 16.98-6.4v49.599zM560.343 134.6c0 11 4.995 21.4 13.584 28.2 93.091 74.4 199.367 69.8 239.719 64.4 2.597 11.6 6.392 22.2 11.587 31.4-34.359 3.4-68.72 2.6-102.68-2.6-65.923-10-129.648-36.6-184.783-77-0.399-0.4-0.799-0.8-1.399-1-2.397-1.4-5.193-2.2-7.991-2.2s-5.594 0.8-7.991 2.2c-48.742 28.2-101.082 49.2-155.617 62.199-53.138 12.8-122.057 16-165.007 16 4.794-9.2 8.39-19.4 10.787-30.799 119.26 7.799 217.745-34.6 267.087-61.4 11.587-6.2 18.778-18.4 18.778-31.601v-4.4h63.925v6.6zM863.991 295.8c5.786 2.8 11.187 4.599 15.974 5.8v27.4l-15.974 15v-48.2zM780.285 551.2c2.197 4.199 6.193 7.399 10.988 8.399 4.594 1 9.589-0.2 13.384-3.2l27.368-22.6v252.2c-36.557 4.2-73.314 3.599-109.472-1.801-63.126-9.6-124.654-34.599-178.191-72.399v-489.6c53.138 33.8 112.468 56.399 173.397 65.6 37.756 5.799 76.111 6.6 114.266 2.4v83.8l-32.362 30.4c-0.599 0.6-1.199 1.2-1.798 2-52.662 70.298-19.834 140.011-17.648 144.654l0.068 0.147zM456.465 610.196l15.782 27.8c-113.982 65.265-226.598 50.932-233.725 50.025l-0.201-0.025 4.595-31.601c0.048 0 0.267 0.023 0.65 0.064 9.126 0.959 111.288 11.703 212.899-46.263zM472.247 557.996l-15.782-27.8c-101.611 57.966-203.773 47.223-212.899 46.263-0.383-0.041-0.602-0.064-0.65-0.064l-4.595 31.601 0.201 0.025c7.128 0.907 119.743 15.241 233.725-50.025zM568.334 317.796l15.782-27.8c105.476 60.4 212.551 46.2 213.549 46l4.595 31.601c-4.795 1-118.661 16.2-233.926-49.801zM584.115 624.402l-15.782 27.8c115.265 65.801 229.131 50.6 233.926 49.8l-4.595-31.6c-0.998 0.201-108.073 14.4-213.549-46z" />
<glyph unicode="&#xe921;" glyph-name="file" horiz-adv-x="860" d="M780 519.999h49.999c16.569 0 29.999-13.43 29.999-29.999v-399.998c0-16.569-13.43-30.003-29.999-30.003h-49.999v-33.997c0-49.629-40.373-90.002-90.002-90.002h-599.999c-49.626 0-90 40.373-90 90.002v663.998c0 7.956 3.16 15.586 8.788 21.212l240 240c5.624 5.626 13.254 8.788 21.212 8.788h419.999c49.629 0 90.002-40.374 90.002-90v-350.001zM240 750v107.574l-137.574-137.574h107.574c16.542 0 30 13.458 30 30zM210 660h-150v-140.001h659.998v350.001c0 16.542-13.458 30-29.999 30h-389.999v-150c0-49.626-40.374-90-90-90zM689.999-4.001c16.542 0 29.999 13.458 29.999 30.003v33.997h-659.998v-33.997c0-16.545 13.458-30.003 30-30.003h599.999zM60 120.001h740v340h-740v-340z" />
<glyph unicode="&#xe922;" glyph-name="filter_clear" horiz-adv-x="931" d="M451.864 813.643h-278.322c-31 0-49.191-34.955-31.406-60.354 0.228-0.341-5.914 8.031 223.023-303.608 10.156-14.729 7.117 1.027 7.117-327.589 0-33.010 37.723-52.071 64.394-32.231 98.688 74.394 122.667 82.772 122.667 121.705 0 229.686-2.952 223.515 7.117 238.115l47.771 65.047c-120.208 43.732-192.256 170.852-162.36 298.915zM565.765 908.258c-128.774-115.453-66.354-321.351 95.988-353.426 129.465-27.355 245.611 75.243 245.611 200.589 0 175.974-209.884 269.566-341.599 152.837zM769.071 725.063c16.321-16.236 4.657-44.041-18.187-44.041-13.746 0-17.19 6.501-48.819 38.006-30.984-30.847-34.768-38.006-48.836-38.006-22.897 0-34.413 27.897-18.187 44.041l30.478 30.358-30.478 30.358c-24.197 24.073 12.25 60.586 36.391 36.53l30.633-30.495 30.615 30.495c24.14 24.056 60.601-12.442 36.391-36.53l-30.478-30.358 30.478-30.358z" />
<glyph unicode="&#xe923;" glyph-name="filter" horiz-adv-x="931" d="M758.236 813.643c31 0 49.191-34.955 31.406-60.354-0.141-0.21-74.477-101.413-223.008-303.608-0.078-0.113-0.156-0.226-0.232-0.337l0.218 0.337c-0.926-1.343-2.631-4.663-4.966-9.559-3.914-14.1-2.136-50.293-2.136-228.556 0-38.933-23.979-47.312-122.667-121.705-26.67-19.84-64.394-0.779-64.394 32.231 0 328.617 3.039 312.86-7.117 327.589-228.937 311.639-222.795 303.267-223.023 303.608-17.785 25.399 0.407 60.354 31.406 60.354h584.513z" />
<glyph unicode="&#xe924;" glyph-name="danger" horiz-adv-x="1189" d="M1173.841 98.218l-487.774 810.045c-19.218 31.912-54.272 51.737-91.486 51.737s-72.271-19.825-91.489-51.739l-487.773-810.043c-19.86-32.986-20.448-74.309-1.535-107.847 18.917-33.538 54.56-54.371 93.022-54.371h975.55c38.463 0 74.105 20.833 93.022 54.374 18.914 33.541 18.326 74.864-1.536 107.844zM1107.961 28.497c-5.206-9.233-15.020-14.97-25.607-14.97h-975.55c-10.588 0-20.401 5.734-25.606 14.967-5.207 9.233-5.045 20.612 0.42 29.689l487.778 810.044c5.288 8.785 14.94 14.243 25.184 14.243s19.895-5.459 25.184-14.243l487.774-810.044c5.47-9.081 5.632-20.457 0.423-29.686zM594.951 641.025c-29.452 0-52.435-15.824-52.435-43.878 0-42.797 2.514-94.941 5.028-147.089v-0.003c2.514-52.148 5.028-104.293 5.028-147.093 0.003-22.297 19.4-31.645 42.384-31.645 17.236 0 41.66 9.348 41.66 31.645 0 42.797 2.514 94.945 5.028 147.093s5.028 104.296 5.028 147.093c0 28.051-23.704 43.878-51.719 43.878zM540.421 166.301c0 30.211 23.704 55.385 55.309 55.385 29.448 0 54.592-25.174 54.592-55.385 0-29.491-25.144-55.388-54.592-55.388-31.605 0-55.309 25.897-55.309 55.388z" />
<glyph unicode="&#xe925;" glyph-name="image" d="M130.85 960h762.301c72.151 0 130.849-58.7 130.849-130.852v-762.296c0-72.151-58.698-130.852-130.849-130.852h-762.301c-72.152 0-130.85 58.701-130.85 130.849v762.299c0 72.152 58.698 130.852 130.85 130.852zM893.151-3.684c38.892 0 70.533 31.639 70.533 70.533h0.003v237.742l-190.351 234.381c-4.767 5.87-10.916 7.025-14.157 7.191-3.251 0.166-9.477-0.353-14.817-5.704l-295.457-295.908c-11.018-11.028-28.618-11.845-40.607-1.892l-124.349 103.255c-7.311 6.072-17.879 6.016-25.124-0.148l-198.51-168.901v-110.016c0-38.892 31.642-70.533 70.536-70.533h762.301zM820.152 577.001l143.532-176.732v428.879c0 38.894-31.639 70.536-70.533 70.536h-762.301c-38.894 0-70.536-31.642-70.536-70.536v-573.092l159.424 135.644c29.62 25.201 72.829 25.459 102.745 0.614l103.181-85.678 276.017 276.444c15.954 15.98 38.052 24.463 60.588 23.324 22.551-1.16 43.651-11.876 57.884-29.404zM176.925 688.586c0 80.186 65.236 145.426 145.425 145.426 80.192 0 145.426-65.238 145.426-145.426s-65.236-145.426-145.426-145.426c-80.187 0-145.425 65.239-145.425 145.426zM237.239 688.586c0-46.93 38.181-85.112 85.111-85.112 46.932 0 85.112 38.182 85.112 85.112s-38.18 85.112-85.112 85.112c-46.93 0-85.111-38.18-85.111-85.112z" />
<glyph unicode="&#xe926;" glyph-name="import-simple" horiz-adv-x="958" d="M162.765 16.001h136.090c22.474 0 40.69-17.91 40.69-40.002s-18.217-39.999-40.69-39.999h-136.090c-89.749 0-162.765 71.776-162.765 160.002v703.998c0 88.224 73.016 160 162.765 160h500.275c89.749 0 162.766-71.776 162.766-160v-245.999c0-22.092-18.217-40.002-40.692-40.002-22.472 0-40.689 17.91-40.689 40.002v245.999c0 44.112-36.511 80-81.385 80h-500.275c-44.874 0-81.383-35.888-81.383-80v-703.998c0-44.115 36.508-80.001 81.383-80.001zM660.645 520.36c0 21.894-18.036 39.639-40.283 39.639h-414.918c-22.248 0-40.283-17.745-40.283-39.639 0-21.89 18.035-39.639 40.283-39.639h414.918c22.247 0 40.283 17.748 40.283 39.639zM205.174 400.001c-22.099 0-40.012-17.748-40.012-39.639 0-21.894 17.913-39.639 40.012-39.639h250.298c22.099 0 40.012 17.745 40.012 39.639 0 21.89-17.913 39.639-40.012 39.639h-250.298zM892.845 395.251c-47.903 48.303-125.846 48.306-173.72 0.033l-224.841-226.208c-4.776-4.806-8.298-10.722-10.26-17.233l-48.967-162.545c-4.34-14.412-0.558-30.059 9.873-40.838 7.815-8.076 18.429-12.46 29.316-12.46 3.643 0 7.32 0.492 10.93 1.5l165.3 46.169c6.801 1.903 13.001 5.54 17.999 10.57l224.368 225.812c47.903 48.303 47.903 126.897 0 175.2zM618.235 60.363l-83.162-23.228 24.338 80.79 151.711 152.635 57.929-58.411-150.815-151.787zM834.96 278.475l-7.934-7.984-57.919 58.401 7.908 7.957c15.968 16.1 41.948 16.1 57.915 0s15.968-42.298 0.030-58.375zM205.444 720h414.918c22.247 0 40.283-17.747 40.283-39.639s-18.036-39.639-40.283-39.639h-414.918c-22.248 0-40.283 17.746-40.283 39.639s18.035 39.639 40.283 39.639z" />
<glyph unicode="&#xe927;" glyph-name="file-excel" horiz-adv-x="1084" d="M569.766 959.432c9.894 1.83 20.128-0.813 27.853-7.183 7.791-6.438 12.264-15.992 12.264-26.090v-101.647h440.471c18.703 0 33.882-15.179 33.882-33.882v-677.647c0-18.703-15.179-33.882-33.882-33.882h-440.471v-101.647c0-10.029-4.472-19.652-12.264-26.091-6.099-5.081-13.824-7.791-21.618-7.791-2.033 0-4.201 0.202-6.234 0.608l-542.118 101.647c-16.060 2.982-27.648 17.010-27.648 33.274v745.411c0 16.331 11.588 30.291 27.648 33.272l542.118 101.647zM1016.471 146.866v609.882h-406.588v-67.767h101.647c18.703 0 33.882-15.179 33.882-33.884 0-18.703-15.179-33.882-33.882-33.882h-101.647v-67.765h101.647c18.703 0 33.882-15.179 33.882-33.882s-15.179-33.882-33.882-33.882h-101.647v-67.762h101.647c18.703 0 33.882-15.179 33.882-33.882s-15.179-33.882-33.882-33.882h-101.647v-67.765h101.647c18.703 0 33.882-15.179 33.882-33.882s-15.179-33.882-33.882-33.882h-101.647v-67.765h406.588zM542.118 248.513v636.785l-474.353-88.907v-689.168l474.353-88.907v230.198zM914.824 688.982h-67.765c-18.703 0-33.882-15.179-33.882-33.884 0-18.703 15.179-33.882 33.882-33.882h67.765c18.703 0 33.882 15.179 33.882 33.882 0 18.704-15.179 33.884-33.882 33.884zM847.059 553.451h67.765c18.703 0 33.882-15.179 33.882-33.882s-15.179-33.882-33.882-33.882h-67.765c-18.703 0-33.882 15.179-33.882 33.882s15.179 33.882 33.882 33.882zM914.824 417.925h-67.765c-18.703 0-33.882-15.179-33.882-33.882s15.179-33.882 33.882-33.882h67.765c18.703 0 33.882 15.179 33.882 33.882s-15.179 33.882-33.882 33.882zM847.059 282.395h67.765c18.703 0 33.882-15.179 33.882-33.882s-15.179-33.882-33.882-33.882h-67.765c-18.703 0-33.882 15.179-33.882 33.882s15.179 33.882 33.882 33.882zM313.374 513.027l-84.528 96.602c-12.469 14.164-33.815 15.52-47.842 3.186-14.095-12.333-15.518-33.747-3.185-47.776l93.182-106.493-94.474-121.467c-11.452-14.773-8.809-36.117 5.963-47.571 6.234-4.81 13.553-7.114 20.804-7.114 10.029 0 20.058 4.472 26.699 13.011l86.473 111.179 98.53-112.604c6.707-7.656 16.059-11.586 25.48-11.586 7.927 0 15.857 2.777 22.362 8.403 14.095 12.333 15.517 33.678 3.183 47.773l-107.18 122.494 108.327 139.282c11.52 14.839 8.879 36.117-5.894 47.571-14.773 11.587-36.051 8.809-47.571-5.897l-100.331-128.994z" />
<glyph unicode="&#xe928;" glyph-name="header-action-settings-full" d="M899.71 567.687l71.875-12.193c30.59-5.134 52.838-31.445 52.41-62.461v-90.056c0-31.018-22.249-57.33-52.838-62.464l-71.875-11.981c-7.27-23.957-17.11-47.272-28.877-69.734l42.356-59.466c17.967-25.242 14.974-59.681-6.847-81.501l-63.744-63.744c-11.981-11.981-27.811-18.609-44.707-18.609-13.265 0-26.098 4.063-36.794 11.762l-59.252 42.356c-22.249-11.767-45.563-21.392-69.734-28.877l-12.195-71.875c-5.134-30.59-31.446-52.838-62.464-52.838h-90.27c-31.016 0-57.327 22.249-62.461 52.838l-11.979 71.875c-23.316 7.27-45.991 16.468-67.596 27.806l-60.109-42.78c-10.696-7.703-23.316-11.767-36.579-11.767-16.899 0-32.728 6.633-44.707 18.609l-63.745 63.749c-22.033 21.816-24.814 56.255-6.845 81.496l42.141 58.615c-11.979 22.244-21.819 45.563-29.306 69.52l-72.73 12.404c-30.589 5.134-52.836 31.446-52.836 62.464v90.056c0 31.018 22.247 57.329 52.836 62.463l71.019 11.979c7.273 24.172 16.685 47.488 28.45 69.949l-42.782 60.109c-17.969 25.242-14.974 59.681 6.845 81.5l63.96 63.745c11.765 11.979 27.809 18.61 44.707 18.61 13.263 0 26.097-4.064 36.793-11.765l58.826-42.354c22.247 11.979 45.563 21.819 69.521 29.305l12.407 72.73c5.133 30.589 31.445 52.836 62.462 52.836h90.058c31.018 0 57.325-22.247 62.459-52.836l11.981-71.019c25.027-7.487 49.199-17.541 72.304-29.734l59.466 42.355c10.696 7.701 23.315 11.765 36.58 11.765 16.896 0 32.726-6.631 44.707-18.61l63.744-63.746c22.035-21.819 24.813-56.259 6.847-81.5l-42.356-59.253c11.767-22.247 21.392-45.563 28.877-69.735zM512.233 669.076c-121.93 0-220.971-99.041-220.971-220.969 0-121.93 99.041-220.97 220.971-220.97s220.97 99.039 220.97 220.97c0 121.929-99.039 220.969-220.97 220.969z" />
<glyph unicode="&#xe929;" glyph-name="header-action-settings" d="M899.71 567.687l71.875-12.193c30.59-5.134 52.838-31.445 52.41-62.461v-90.056c0-31.018-22.249-57.33-52.838-62.464l-71.875-11.981c-7.27-23.957-17.11-47.272-28.877-69.734l42.356-59.466c17.967-25.242 14.974-59.681-6.847-81.501l-63.744-63.744c-11.981-11.981-27.811-18.609-44.707-18.609-13.265 0-26.098 4.063-36.794 11.762l-59.252 42.356c-22.249-11.767-45.563-21.392-69.734-28.877l-12.195-71.875c-5.134-30.59-31.446-52.838-62.464-52.838h-90.27c-31.016 0-57.327 22.249-62.461 52.838l-11.979 71.875c-23.316 7.27-45.991 16.468-67.596 27.806l-60.109-42.78c-10.696-7.703-23.316-11.767-36.579-11.767-16.899 0-32.728 6.633-44.707 18.609l-63.745 63.749c-22.033 21.816-24.814 56.255-6.845 81.496l42.141 58.615c-11.979 22.244-21.819 45.563-29.306 69.52l-72.73 12.404c-30.589 5.134-52.836 31.446-52.836 62.464v90.056c0 31.018 22.247 57.329 52.836 62.463l71.019 11.979c7.273 24.172 16.685 47.488 28.45 69.949l-42.782 60.109c-17.969 25.242-14.974 59.681 6.845 81.5l63.96 63.745c11.765 11.979 27.809 18.61 44.707 18.61 13.263 0 26.097-4.064 36.793-11.765l58.826-42.354c22.247 11.979 45.563 21.819 69.521 29.305l12.407 72.73c5.134 30.589 31.445 52.836 62.462 52.836h90.058c31.018 0 57.325-22.247 62.459-52.836l11.981-71.019c25.027-7.487 49.199-17.541 72.304-29.734l59.466 42.355c10.696 7.701 23.315 11.765 36.58 11.765 16.896 0 32.726-6.631 44.707-18.61l63.744-63.746c22.035-21.819 24.813-56.259 6.847-81.5l-42.356-59.253c11.767-22.247 21.392-45.563 28.877-69.735zM961.96 397.414c2.779 0.428 4.706 2.779 4.706 5.562h0.214v90.056c0 2.78-1.927 5.133-4.706 5.561l-89.842 15.187c-11.124 1.711-20.322 10.054-23.105 21.177-8.127 31.445-20.536 61.607-37.218 89.629-5.776 9.84-5.348 22.247 1.285 31.445l52.834 74.227c1.499 2.353 1.285 5.348-0.642 7.273l-63.744 63.745c-1.499 1.497-3.212 1.711-4.063 1.711-1.071 0-2.141-0.428-3.212-1.070l-73.798-53.050c-9.411-6.631-21.606-7.059-31.446-1.283-28.663 16.899-59.466 29.52-91.769 37.648-11.12 2.781-19.465 11.979-21.388 23.316l-14.974 89.201c-0.428 2.781-2.783 4.706-5.562 4.706h-90.056c-2.783 0-5.136-1.925-5.564-4.706l-15.402-90.485c-1.925-11.123-10.267-20.108-21.177-23.102-31.445-8.129-61.606-20.963-89.415-37.648-9.84-5.776-22.247-5.348-31.659 1.284l-73.8 52.622c-0.856 0.642-1.925 1.070-3.208 1.070-1.070 0-2.567-0.214-4.064-1.711l-63.746-63.745c-1.925-1.925-2.139-5.134-0.641-7.273l53.264-74.869c6.631-9.198 7.273-21.391 1.497-31.231-16.471-28.022-28.664-58.398-36.579-89.843-2.781-11.123-11.979-19.466-23.316-21.391l-89.201-14.974c-2.781-0.428-4.706-2.779-4.706-5.563v-90.056c0-2.779 1.925-5.134 4.706-5.562l90.484-15.402c11.123-1.922 20.108-10.268 23.102-21.178 8.129-31.441 20.964-61.603 37.649-89.414 5.775-9.84 5.348-22.244-1.284-31.656l-52.622-73.802c-1.497-2.351-1.284-5.348 0.641-7.27l63.746-63.749c1.497-1.494 3.208-1.708 4.064-1.708 1.070 0 2.139 0.428 3.208 1.066l74.869 53.267c4.92 3.635 10.909 5.348 16.685 5.348 4.92 0 10.054-1.285 14.546-3.854 27.594-15.825 57.114-28.020 87.704-35.933 10.909-2.783 19.252-11.767 21.177-23.105l14.974-89.842c0.428-2.779 2.781-4.706 5.56-4.706h90.056c2.783 0 5.134 1.927 5.562 4.706l15.188 89.842c1.713 11.124 10.054 20.322 21.178 23.105 31.446 8.127 61.608 20.536 89.628 37.218 9.84 5.776 22.249 5.348 31.446-1.285l74.226-52.834c0.856-0.642 1.927-1.071 3.212-1.071 1.066 0 2.565 0.214 4.063 1.713l63.744 63.744c1.927 1.927 2.141 5.134 0.642 7.275l-52.834 74.44c-6.633 9.411-7.061 21.606-1.285 31.446 16.687 28.020 29.091 58.182 37.218 89.628 2.783 10.91 11.767 19.251 23.105 21.178l89.842 14.974zM291.125 448.107c0 121.931 99.041 220.973 220.973 220.973 121.926 0 220.97-99.041 220.97-220.973 0-121.926-99.044-220.97-220.97-220.97-121.932 0-220.973 99.044-220.973 220.97zM348.881 448.107c0-90.056 73.158-163.212 163.217-163.212 90.056 0 163.212 73.155 163.212 163.212s-73.155 163.216-163.212 163.216c-90.059 0-163.217-73.158-163.217-163.216z" />
<glyph unicode="&#xe92a;" glyph-name="header-action-help-full" d="M512-64c-135.744 0.154-265.884 54.146-361.869 150.132-95.986 95.981-149.977 226.122-150.131 361.868 0 101.263 30.028 200.253 86.287 284.452s136.223 149.822 229.779 188.574c93.556 38.752 196.502 48.891 295.821 29.136s190.548-68.519 262.153-140.123c71.601-71.605 120.367-162.834 140.12-262.153 19.759-99.318 9.616-202.262-29.133-295.819-38.754-93.556-104.378-173.521-188.574-229.781-84.201-56.259-183.189-86.286-284.453-86.286zM375.463 550.399c9.053 0 17.734 3.596 24.136 9.997s9.997 15.084 9.997 24.136c0 27.158 10.788 53.204 29.992 72.408s45.248 29.992 72.407 29.992c27.159 0 53.206-10.789 72.411-29.992 19.2-19.204 29.989-45.249 29.989-72.408 0-54.136-25.702-79.838-58.266-112.403-23.99-19.437-43.427-43.892-56.948-71.652-13.526-27.755-20.801-58.14-21.318-89.014 0-9.048 3.593-17.734 9.998-24.134 6.4-6.4 15.081-9.998 24.134-9.998s17.734 3.598 24.138 9.998c6.4 6.4 9.998 15.085 9.998 24.134 0 54.137 25.698 79.839 58.261 112.403 23.994 19.437 43.432 43.897 56.953 71.653 13.521 27.758 20.797 58.141 21.318 89.013 0 45.264-17.981 88.673-49.99 120.679-32.005 32.007-75.413 49.987-120.678 49.987-45.261 0-88.672-17.981-120.679-49.987s-49.987-75.416-49.987-120.679c0-9.053 3.596-17.735 9.997-24.136s15.083-9.997 24.136-9.997zM512.009 140.8c18.851 0 34.132 15.281 34.132 34.132s-15.281 34.132-34.132 34.132c-18.851 0-34.136-15.281-34.136-34.132s15.286-34.132 34.136-34.132z" />
<glyph unicode="&#xe92b;" glyph-name="header-action-help" d="M512-64c101.264 0 200.253 30.026 284.453 86.286 84.196 56.259 149.821 136.225 188.574 229.781 38.749 93.556 48.891 196.501 29.133 295.819-19.754 99.319-68.52 190.548-140.12 262.153-71.606 71.605-162.835 120.368-262.153 140.123s-202.265 9.616-295.821-29.136c-93.556-38.752-173.519-104.376-229.779-188.574s-86.287-183.188-86.287-284.452c0.154-135.745 54.145-265.886 150.131-361.868 95.985-95.986 226.125-149.979 361.869-150.132zM512 891.733c87.761 0 173.554-26.024 246.523-74.783 72.974-48.758 129.848-118.060 163.43-199.141 33.587-81.082 42.375-170.302 25.251-256.379-17.119-86.077-59.383-165.139-121.437-227.198-62.059-62.059-141.126-104.318-227.198-121.442-86.077-17.119-175.298-8.332-256.379 25.251-81.082 33.587-150.383 90.461-199.141 163.435-48.758 72.969-74.782 158.762-74.782 246.523 0.135 117.643 46.929 230.43 130.116 313.617s195.973 129.981 313.617 130.116zM512.009 140.8c18.851 0 34.132 15.281 34.132 34.132s-15.281 34.132-34.132 34.132c-18.851 0-34.136-15.281-34.136-34.132s15.286-34.132 34.136-34.132zM399.599 560.396c-6.401-6.401-15.083-9.997-24.136-9.997s-17.735 3.596-24.136 9.997c-6.401 6.401-9.997 15.084-9.997 24.136 0 45.264 17.981 88.673 49.987 120.679s75.418 49.987 120.679 49.987c45.265 0 88.674-17.981 120.678-49.987 32.009-32.006 49.99-75.416 49.99-120.679-0.521-30.872-7.796-61.255-21.318-89.013-13.521-27.756-32.959-52.216-56.948-71.653-32.563-32.563-58.266-58.266-58.266-112.403 0-9.048-3.598-17.734-9.998-24.134-6.405-6.4-15.085-9.998-24.138-9.998s-17.734 3.598-24.134 9.998c-6.405 6.4-9.998 15.085-9.998 24.134 0.517 30.874 7.792 61.258 21.318 89.014 13.521 27.76 32.959 52.215 56.948 71.652 32.563 32.565 58.266 58.267 58.266 112.403 0 27.158-10.789 53.204-29.989 72.408-19.205 19.204-45.251 29.992-72.411 29.992s-53.203-10.789-72.407-29.992c-19.204-19.204-29.992-45.249-29.992-72.408 0-9.053-3.596-17.735-9.997-24.136z" />
<glyph unicode="&#xe92c;" glyph-name="header-action-notifications-full" horiz-adv-x="973" d="M819.2 618.666v-273.066l136.53-273.065h-310.646c-15.805-77.896-84.649-136.535-167.218-136.535s-151.415 58.639-167.219 136.535h-310.647l136.534 273.065v273.066c0 188.52 152.814 341.334 341.332 341.334s341.334-152.814 341.334-341.334z" />
<glyph unicode="&#xe92d;" glyph-name="header-action-notifications" horiz-adv-x="973" d="M819.2 345.6v273.066c0 188.52-152.817 341.334-341.334 341.334s-341.332-152.814-341.332-341.334v-273.066l-136.534-273.065h310.647c15.804-77.896 84.651-136.535 167.219-136.535 82.569 0 151.413 58.639 167.218 136.535h310.646l-136.53 273.065zM477.866 4.27c-44.51 0-82.021 28.564-96.12 68.265h192.272c-14.131-39.7-51.64-68.265-96.153-68.265zM102.401 140.8l102.399 204.8v273.066c0 150.801 122.265 273.066 273.066 273.066 150.798 0 273.064-122.265 273.064-273.066v-273.066l102.4-204.8h-750.929z" />
<glyph unicode="&#xe92e;" glyph-name="logout" horiz-adv-x="1073" d="M0 448c0-282.297 230.18-512 513.063-512 212.261 0 399.672 127.439 477.516 324.657 7.090 17.92-1.775 38.215-19.724 45.285-18.003 6.983-38.298-1.721-45.388-19.739-67.209-170.306-229.103-280.386-412.404-280.386-244.315 0-443.1 198.383-443.1 442.183s198.786 442.182 443.1 442.182c183.301 0 345.195-110.079 412.404-280.439 7.134-18.008 27.424-26.719 45.388-19.73 17.949 7.117 26.814 27.367 19.724 45.281-77.844 197.266-265.255 324.706-477.516 324.706-282.883 0-513.063-229.703-513.063-512zM548.035 226.909c-8.958 0-17.905 3.394-24.722 10.24l-186.144 185.758c-6.584 6.349-10.68 15.248-10.68 25.103 0 5.105 1.1 9.952 3.076 14.326 1.693 3.764 4.088 7.29 7.184 10.378l186.565 186.178c13.663 13.636 35.82 13.636 49.493 0 13.663-13.636 13.663-35.744 0-49.381l-126.859-126.595h591.838c19.31 0 34.977-15.641 34.977-34.907 0-19.271-15.667-34.909-34.977-34.909h-591.859l126.88-126.615c13.663-13.639 13.663-35.747 0-49.381-6.861-6.802-15.818-10.196-24.771-10.196z" />
<glyph unicode="&#xe92f;" glyph-name="arrow-rotate" horiz-adv-x="910" d="M727.142 742.78l-49.402-63.464c106.49-82.858 159.602-217.003 138.638-350.123-15.354-97.684-67.846-183.535-147.78-241.761-79.963-58.197-177.774-81.852-275.455-66.412-201.646 31.75-339.908 221.628-308.211 423.288 15.357 97.692 67.86 183.551 147.806 241.762 69.799 50.812 153.207 75.217 238.263 70.376l-69.519-72.933 51.573-49.216 158.933 166.794-166.733 158.909-49.2-51.626 75.042-71.475c-102.010 4.825-201.927-24.848-285.683-85.833-97.306-70.851-161.197-175.35-179.905-294.275-38.588-245.443 129.685-476.588 375.131-515.216 23.723-3.743 47.435-5.575 70.994-5.575 94.542 0 186.404 29.713 264.29 86.437 97.314 70.861 161.195 175.36 179.905 294.258 25.52 161.996-39.122 325.27-168.687 426.085z" />
<glyph unicode="&#xe930;" glyph-name="plus" d="M709.336 448c0-22.092-17.909-40-40.004-40h-117.332v-117.332c0-22.096-17.907-40.004-40-40.004s-40 17.909-40 40.004v117.332h-117.334c-22.092 0-40 17.907-40 40s17.908 40 40 40h117.334v117.334c0 22.092 17.907 40 40 40s40-17.908 40-40v-117.334h117.332c22.090 0 40.004-17.907 40.004-40v0zM1024 663.256v-430.512c0-74.792-29.127-145.106-82.011-197.99-8.425-5.945-77.961-98.753-214.733-98.753h-430.512c-136.756 0-206.222 92.746-214.734 98.753-52.884 52.884-82.010 123.199-82.010 197.99v430.512c0 74.792 29.126 145.106 82.010 197.99 8.424 5.944 77.962 98.754 214.734 98.754h430.512c136.755 0 206.222-92.748 214.733-98.754 52.89-52.884 82.011-123.2 82.011-197.99v0zM944.003 663.256c0 53.422-20.804 103.646-58.578 141.42-8.767 6.302-57.418 75.324-158.168 75.324h-430.512c-100.21 0-149.698-69.234-158.166-75.324-37.774-37.774-58.578-87.998-58.578-141.42v-430.512c0-53.424 20.804-103.646 58.578-141.42 8.764-6.303 57.416-75.327 158.166-75.327h430.512c100.21 0 149.697 69.239 158.168 75.327 37.774 37.774 58.578 87.996 58.578 141.42v430.512z" />
<glyph unicode="&#xe931;" glyph-name="caret-up-down" d="M483.037-35.037l-310.714 310.714c-25.803 25.803-7.528 69.923 28.963 69.923h621.427c36.492 0 54.767-44.12 28.964-69.923l-310.714-310.714c-15.996-15.996-41.93-15.996-57.926 0zM540.963 931.037l310.714-310.714c25.803-25.803 7.528-69.923-28.964-69.923h-621.427c-36.491 0-54.766 44.12-28.963 69.923l310.714 310.714c15.996 15.996 41.93 15.996 57.926 0z" />
<glyph unicode="&#xe932;" glyph-name="search" horiz-adv-x="922" d="M915.973 45.742l-267.715 268.646c50.775 62.904 81.341 142.876 81.341 229.947 0 201.847-163.651 366.064-364.8 366.064-201.151 0-364.8-164.217-364.8-366.064 0-201.849 163.651-366.063 364.802-366.063 86.771 0 166.47 30.674 229.154 81.623l267.72-268.641c7.501-7.526 19.656-7.526 27.156 0l27.146 27.238c7.496 7.526 7.496 19.727-0.005 27.249zM364.802 255.34c-158.813 0-288.001 129.633-288.001 288.996s129.188 288.997 288.001 288.997c158.811 0 287.998-129.635 287.998-288.997s-129.188-288.996-287.998-288.996z" />
<glyph unicode="&#xe933;" glyph-name="nav-administrator" d="M428.192 513.6c112.224 0 203.2 90.976 203.2 203.2s-90.976 203.2-203.2 203.2c-112.224 0-203.2-90.976-203.2-203.2v0c0.055-112.202 90.998-203.145 203.195-203.2h0.005zM428.192 872c85.715 0 155.2-69.485 155.2-155.2s-69.485-155.2-155.2-155.2c-85.715 0-155.2 69.485-155.2 155.2v0c0.036 85.7 69.5 155.164 155.197 155.2h0.003zM558.336 439.52c0.87 2.384 1.373 5.137 1.373 8.007 0 10.392-6.596 19.243-15.83 22.596l-0.167 0.053c-34.345 12.508-73.992 19.741-115.328 19.741-191.437 0-346.641-155.135-346.752-346.546v-0.011c0-13.255 10.745-24 24-24s24 10.745 24 24v0c0.038 164.933 133.75 298.622 298.688 298.622 35.625 0 69.794-6.237 101.473-17.678l-2.081 0.656c2.382-0.868 5.132-1.37 7.999-1.37 10.367 0 19.201 6.564 22.572 15.763l0.053 0.167zM714.912 311.936c-53.5-0.018-96.864-43.393-96.864-96.896 0-53.514 43.382-96.896 96.896-96.896s96.896 43.382 96.896 96.896v0c-0.036 53.511-43.415 96.878-96.926 96.896h-0.002zM714.912 166.144c-26.991 0.018-48.864 21.903-48.864 48.896 0 27.005 21.891 48.896 48.896 48.896s48.896-21.891 48.896-48.896v0c-0.018-27.008-21.917-48.896-48.928-48.896v0zM921.248 201.408c0.288 4.087 0.452 8.856 0.452 13.664s-0.164 9.577-0.487 14.303l0.035-0.639 19.2 46.816c1.143 2.703 1.808 5.846 1.808 9.144 0 2.787-0.474 5.463-1.347 7.953l0.051-0.168c-10.719 30.756-26.374 57.268-46.255 79.99l0.239-0.278c-3.743 4.263-8.928 7.181-14.787 7.986l-0.125 0.014-50.24 6.72c-6.681 4.547-14.434 9.091-22.487 13.123l-1.193 0.541-30.912 40.128c-3.506 4.51-8.506 7.713-14.246 8.87l-0.154 0.026c-13.835 2.853-29.735 4.486-46.016 4.486s-32.181-1.633-47.545-4.744l1.529 0.259c-5.894-1.183-10.894-4.386-14.359-8.842l-0.041-0.054-30.944-40.16c-9.234-4.556-16.988-9.099-24.392-14.119l0.712 0.455-50.208-6.688c-5.984-0.819-11.17-3.737-14.889-7.973l-0.023-0.027c-19.642-22.444-35.298-48.957-45.503-78.033l-0.513-1.679c-0.821-2.321-1.296-4.997-1.296-7.784 0-3.298 0.664-6.441 1.867-9.302l-0.059 0.158 19.2-46.88c-0.288-4.087-0.452-8.856-0.452-13.664s0.164-9.577 0.487-14.303l-0.035 0.639-19.2-46.816c-1.143-2.703-1.808-5.846-1.808-9.144 0-2.787 0.474-5.463 1.347-7.953l-0.051 0.168c10.717-30.756 26.373-57.269 46.254-79.99l-0.238 0.278c3.741-4.266 8.927-7.184 14.787-7.986l0.125-0.014 50.24-6.72c6.68-4.544 14.432-9.088 22.485-13.122l1.195-0.542 30.912-40.128c3.506-4.51 8.506-7.713 14.246-8.87l0.154-0.026c13.835-2.854 29.735-4.487 46.016-4.487s32.181 1.634 47.545 4.746l-1.529-0.259c5.894 1.183 10.894 4.386 14.359 8.842l0.041 0.054 30.944 40.16c9.235 4.557 16.989 9.101 24.394 14.12l-0.714-0.456 50.208 6.688c5.985 0.816 11.171 3.734 14.888 7.973l0.024 0.027c19.679 22.44 35.366 48.952 45.598 78.035l0.514 1.677c0.821 2.321 1.296 4.997 1.296 7.784 0 3.298-0.664 6.441-1.867 9.302l0.059-0.158zM864.544 96.256l-46.688-6.4c-4.081-0.559-7.729-2.071-10.822-4.304l0.070 0.048c-7.579-5.449-16.199-10.508-25.277-14.75l-0.995-0.418c-3.646-1.668-6.686-4.102-9.015-7.113l-0.041-0.055-28.8-37.312c-8.439-1.328-18.171-2.087-28.080-2.087s-19.641 0.759-29.141 2.221l1.061-0.134-28.8 37.312c-2.37 3.066-5.41 5.5-8.909 7.107l-0.147 0.061c-10.073 4.659-18.692 9.718-26.759 15.5l0.487-0.332c-3.023 2.185-6.671 3.697-10.627 4.242l-0.125 0.014-46.688 6.4c-11.192 13.983-20.648 30.041-27.639 47.358l-0.457 1.282 17.92 43.584c1.142 2.698 1.806 5.836 1.806 9.128 0 0.808-0.040 1.608-0.118 2.396l0.008-0.1c-0.462 4.547-0.725 9.827-0.725 15.168s0.263 10.621 0.778 15.827l-0.053-0.659c0.070 0.688 0.11 1.487 0.11 2.296 0 3.292-0.664 6.43-1.865 9.286l0.059-0.158-17.952 43.552c7.441 18.6 16.897 34.659 28.389 49.018l-0.293-0.378 46.688 6.4c4.082 0.558 7.73 2.070 10.822 4.304l-0.070-0.048c7.579 5.449 16.199 10.508 25.277 14.75l0.995 0.418c3.647 1.666 6.686 4.101 9.015 7.113l0.041 0.055 28.8 37.312c8.439 1.329 18.171 2.089 28.080 2.089s19.641-0.759 29.141-2.223l-1.061 0.134 28.8-37.312c2.369-3.067 5.409-5.502 8.909-7.107l0.147-0.061c10.073-4.659 18.692-9.718 26.759-15.5l-0.487 0.332c3.022-2.186 6.67-3.698 10.627-4.242l0.125-0.014 46.688-6.4c11.192-13.983 20.648-30.041 27.639-47.358l0.457-1.282-17.92-43.584c-1.143-2.696-1.807-5.832-1.807-9.123 0-0.81 0.040-1.611 0.119-2.401l-0.008 0.1c0.462-4.547 0.725-9.827 0.725-15.168s-0.263-10.621-0.778-15.827l0.053 0.659c-0.071-0.69-0.111-1.491-0.111-2.301 0-3.291 0.664-6.427 1.866-9.281l-0.059 0.157 17.952-43.552c-7.441-18.601-16.898-34.659-28.389-49.019l0.293 0.379z" />
<glyph unicode="&#xe934;" glyph-name="nav-notifications" d="M688.768 449.6c30.386 5.981 61.646 5.981 92.032 0 5.72-1.121 10.838-4.282 14.4-8.896v0l30.912-40.128c8.187-4.027 16.097-8.591 23.68-13.664v0l50.24-6.72c5.776-0.771 11.076-3.614 14.912-8 20.347-23.346 35.974-50.417 46.016-79.712 1.889-5.518 1.707-11.534-0.512-16.928v0l-19.2-46.816c0.602-9.099 0.602-18.229 0-27.328v0l19.296-46.88c2.219-5.394 2.401-11.41 0.512-16.928-10.069-29.303-25.729-56.375-46.112-79.712-3.834-4.389-9.135-7.232-14.912-8v0l-50.208-6.688c-7.578-5.081-15.489-9.646-23.68-13.664v0l-30.944-40.16c-3.562-4.614-8.68-7.775-14.4-8.896-30.386-5.983-61.646-5.983-92.032 0-5.72 1.121-10.838 4.282-14.4 8.896v0l-30.912 40.128c-8.186 4.028-16.096 8.593-23.68 13.664v0l-50.24 6.72c-5.777 0.768-11.078 3.611-14.912 8-20.348 23.346-35.975 50.416-46.016 79.712-1.889 5.518-1.707 11.534 0.512 16.928v0l19.2 46.816c-0.603 9.099-0.603 18.229 0 27.328v0l-19.2 46.88c-2.219 5.394-2.401 11.41-0.512 16.928 10.042 29.295 25.669 56.366 46.016 79.712 3.836 4.386 9.136 7.229 14.912 8v0l50.208 6.688c7.577 5.081 15.489 9.646 23.68 13.664v0l30.944 40.16c3.562 4.614 8.68 7.775 14.4 8.896zM762.944 404.16c-18.616 2.785-37.544 2.785-56.16 0v0l-28.8-37.312c-2.38-3.101-5.491-5.564-9.056-7.168-9.213-4.223-18.008-9.301-26.272-15.168-3.182-2.277-6.874-3.739-10.752-4.256v0l-46.688-6.4c-11.717-14.736-21.185-31.128-28.096-48.64v0l17.952-43.552c1.488-3.613 2.070-7.535 1.696-11.424-0.967-10.089-0.967-20.247 0-30.336 0.374-3.889-0.208-7.811-1.696-11.424v0l-17.92-43.584c6.917-17.51 16.384-33.9 28.096-48.64v0l46.688-6.4c3.878-0.519 7.57-1.98 10.752-4.256 8.264-5.867 17.059-10.945 26.272-15.168 3.564-1.605 6.675-4.068 9.056-7.168v0l28.8-37.312c18.617-2.783 37.543-2.783 56.16 0v0l28.8 37.312c2.381 3.1 5.492 5.563 9.056 7.168 9.213 4.223 18.008 9.301 26.272 15.168 3.182 2.276 6.874 3.737 10.752 4.256v0l46.688 6.4c11.717 14.736 21.185 31.128 28.096 48.64v0l-17.952 43.552c-1.489 3.612-2.072 7.535-1.696 11.424 0.967 10.089 0.967 20.247 0 30.336-0.376 3.889 0.207 7.812 1.696 11.424v0l17.92 43.584c-6.917 17.51-16.384 33.9-28.096 48.64v0l-46.688 6.4c-3.878 0.517-7.57 1.979-10.752 4.256-8.264 5.867-17.059 10.945-26.272 15.168-3.565 1.604-6.676 4.067-9.056 7.168v0zM471.321 898c152.732 0 276.83-122.568 279.296-274.714l0.037-4.619 0.002-125.032c-18.634 1.064-37.353 0.252-55.871-2.438v127.47c0 123.409-100.058 223.466-223.464 223.466-122.175 0-221.463-98.066-223.436-219.771l-0.030-3.695v-223.466l-83.799-167.6 321.477 0.002 2.427-5.926-0.032-1.23c-0.080-3.625-0.080-7.252 0-10.877l0.032-1.216-15.017-36.618-80.283-0.001c11.423-32.165 41.623-55.397 77.57-55.858l1.091-0.006 1.090 0.006c0.505 0.006 1.009 0.017 1.512 0.033 7.044-18.53 16.030-36.23 26.789-52.809-9.475-2.032-19.308-3.1-29.391-3.1-66.895 0-122.784 47.033-136.444 109.827l-0.401 1.908h-254.221l111.734 223.465v223.466c0 154.277 125.058 279.334 279.332 279.334zM734.912 311.936c53.512-0.018 96.893-43.384 96.928-96.896 0-53.51-43.375-96.89-96.885-96.896s-96.895 43.365-96.907 96.875c-0.012 53.51 43.354 96.9 96.864 96.917zM734.955 263.936c-27 0.006-48.895-21.874-48.907-48.875s21.864-48.9 48.864-48.917c27.010 0 48.91 21.886 48.928 48.896 0 27-21.885 48.89-48.885 48.896z" />
<glyph unicode="&#xe935;" glyph-name="nav-suppliers" d="M511.139 642.431c50.067 0 93.469-10.654 125.717-32.81 37.219-25.572 57.517-65.043 57.517-115.109v0-153.478l-0.006-1.195c-0.413-39.397-21.248-75.8-55.082-96.101v0l-2.498-1.499-0.8-0.489c-17.236-10.718-27.747-29.59-27.747-49.93v0-150.367l-0.007-0.627c-0.333-14.806-12.44-26.706-27.326-26.706-15.096 0-27.333 12.238-27.333 27.333v0 150.367l0.006 1.195c0.413 39.398 21.247 75.8 55.082 96.101v0l2.498 1.499 0.8 0.489c17.236 10.717 27.747 29.591 27.747 49.93v0 153.478l-0.005 1.205c-0.286 31.606-11.863 53.774-33.802 68.847-22.035 15.14-54.873 23.2-94.76 23.2s-72.725-8.061-94.76-23.2c-22.216-15.264-33.807-37.804-33.807-70.052v0-152.982l0.008-0.946c0.328-20.471 11.292-39.331 28.979-49.734v0l2.931-1.724 1.036-0.617c34.047-20.516 54.903-57.379 54.903-97.185v0-149.871l-0.007-0.627c-0.333-14.806-12.44-26.706-27.326-26.706-15.096 0-27.333 12.238-27.333 27.333v0 149.871l-0.008 0.946c-0.328 20.472-11.292 39.331-28.98 49.736v0l-2.93 1.723-1.036 0.617c-34.046 20.514-54.903 57.378-54.903 97.184v0 152.982l0.006 1.499c0.402 49.355 20.664 88.293 57.511 113.61 32.248 22.157 75.65 32.81 125.717 32.81h-0.002zM512 881.88c53.151 0 96.24-43.087 96.24-96.24s-43.088-96.24-96.24-96.24c-53.151 0-96.24 43.087-96.24 96.24s43.088 96.24 96.24 96.24zM512 827.214c-22.96 0-41.573-18.612-41.573-41.573s18.613-41.573 41.573-41.573c22.96 0 41.573 18.612 41.573 41.573s-18.613 41.573-41.573 41.573z" />
<glyph unicode="&#xe936;" glyph-name="date-thick" horiz-adv-x="960" d="M640 857.6v51.2c0 28.262 23.891 51.2 53.331 51.2s53.338-22.938 53.338-51.2v-51.2c117.811 0 213.331-91.699 213.331-204.8v-512c0-113.101-95.52-204.8-213.331-204.8-152.536 0-380.856 0-533.336 0-117.813 0-213.333 91.699-213.333 204.8v512c0 113.101 95.52 204.8 213.333 204.8v51.2c0 28.262 23.894 51.2 53.334 51.2s53.333-22.938 53.333-51.2v-51.2h320zM853.331 448h-746.664v-307.2c0-56.525 47.733-102.4 106.666-102.4h533.336c58.88 0 106.662 45.875 106.662 102.4v307.2zM746.669 755.2v-51.2c0-28.262-23.898-51.2-53.338-51.2s-53.331 22.938-53.331 51.2v51.2h-320v-51.2c0-28.262-23.893-51.2-53.333-51.2s-53.334 22.938-53.334 51.2v51.2c-58.933 0-106.666-45.824-106.666-102.4v-102.4h746.664v102.4c0 56.576-47.782 102.4-106.662 102.4z" />
<glyph unicode="&#xe937;" glyph-name="nav-supplier-groups" d="M511.139 642.431c50.067 0 93.469-10.654 125.717-32.81 37.219-25.572 57.517-65.043 57.517-115.109v0-153.478l-0.006-1.195c-0.413-39.397-21.248-75.8-55.082-96.101v0l-2.498-1.499-0.8-0.489c-17.236-10.718-27.747-29.59-27.747-49.93v0-150.367l-0.007-0.627c-0.333-14.806-12.44-26.706-27.326-26.706-15.096 0-27.333 12.238-27.333 27.333v0 150.367l0.006 1.195c0.413 39.398 21.247 75.8 55.082 96.101v0l2.498 1.499 0.8 0.489c17.236 10.717 27.747 29.591 27.747 49.93v0 153.478l-0.005 1.205c-0.286 31.606-11.863 53.774-33.802 68.847-22.035 15.14-54.873 23.2-94.76 23.2s-72.725-8.061-94.76-23.2c-22.216-15.264-33.807-37.804-33.807-70.052v0-152.982l0.008-0.946c0.328-20.471 11.292-39.331 28.979-49.734v0l2.931-1.724 1.036-0.617c34.047-20.516 54.903-57.379 54.903-97.185v0-149.871l-0.007-0.627c-0.333-14.806-12.44-26.706-27.326-26.706-15.096 0-27.333 12.238-27.333 27.333v0 149.871l-0.008 0.946c-0.328 20.472-11.292 39.331-28.98 49.736v0l-2.93 1.723-1.036 0.617c-34.046 20.514-54.903 57.378-54.903 97.184v0 152.982l0.006 1.499c0.402 49.355 20.664 88.293 57.511 113.61 32.248 22.157 75.65 32.81 125.717 32.81zM312.172 189.372c15.096 0 27.333-12.238 27.333-27.333v0-120.586l-0.007-0.627c-0.333-14.806-12.44-26.706-27.326-26.706-15.096 0-27.333 12.238-27.333 27.333v0 120.586l0.007 0.627c0.333 14.806 12.44 26.706 27.326 26.706zM239.82 572.663c15.096 0 27.333-12.238 27.333-27.333s-12.238-27.333-27.333-27.333c-34.842 0-62.353-5.97-80.328-17.419-17.726-11.29-26.706-28.148-26.706-54.3v0-146.426l0.008-0.956c0.295-18.15 8.962-35.171 23.511-46.083v0l0.938-0.711c28.001-21.456 44.449-54.74 44.449-90.063v0-120.586l-0.007-0.627c-0.333-14.806-12.44-26.706-27.326-26.706-15.096 0-27.333 12.238-27.333 27.333v0 120.586l-0.008 0.956c-0.295 18.15-8.962 35.171-23.511 46.083v0l-0.938 0.711c-28.001 21.456-44.449 54.74-44.449 90.063v0 146.426l0.005 1.334c0.362 43.937 18.632 77.822 52 99.074 28.086 17.889 65.357 25.977 109.695 25.977zM711.828 189.372c15.096 0 27.333-12.238 27.333-27.333v0-120.586l-0.007-0.627c-0.333-14.806-12.44-26.706-27.326-26.706-15.096 0-27.333 12.238-27.333 27.333v0 120.586l0.007 0.627c0.333 14.806 12.44 26.706 27.326 26.706zM784.18 572.663c44.338 0 81.609-8.088 109.695-25.977 33.704-21.467 52.005-55.824 52.005-100.409v0-146.426l-0.006-1.177c-0.365-35.276-17.124-68.405-45.381-89.597v0l-0.76-0.58c-14.343-11.125-22.759-28.271-22.759-46.459v0-120.586l-0.007-0.627c-0.333-14.806-12.44-26.706-27.326-26.706-15.096 0-27.333 12.238-27.333 27.333v0 120.586l0.006 1.177c0.365 35.276 17.124 68.405 45.381 89.597v0l0.76 0.58c14.343 11.125 22.759 28.271 22.759 46.459v0 146.426l-0.006 1.148c-0.26 25.499-9.235 42.029-26.7 53.153-17.975 11.449-45.486 17.419-80.328 17.419-15.096 0-27.333 12.238-27.333 27.333s12.238 27.333 27.333 27.333zM243.266 812.974c53.151 0 96.24-43.087 96.24-96.24s-43.088-96.24-96.24-96.24c-53.151 0-96.24 43.087-96.24 96.24s43.088 96.24 96.24 96.24zM780.734 812.974c53.151 0 96.24-43.087 96.24-96.24s-43.088-96.24-96.24-96.24c-53.151 0-96.24 43.087-96.24 96.24s43.088 96.24 96.24 96.24zM243.266 758.307c-22.96 0-41.573-18.612-41.573-41.573s18.613-41.573 41.573-41.573c22.96 0 41.573 18.612 41.573 41.573s-18.613 41.573-41.573 41.573zM780.734 758.307c-22.96 0-41.573-18.612-41.573-41.573s18.613-41.573 41.573-41.573c22.96 0 41.573 18.612 41.573 41.573s-18.613 41.573-41.573 41.573zM512 881.88c53.151 0 96.24-43.087 96.24-96.24s-43.088-96.24-96.24-96.24c-53.151 0-96.24 43.087-96.24 96.24s43.088 96.24 96.24 96.24zM512 827.214c-22.96 0-41.573-18.612-41.573-41.573s18.613-41.573 41.573-41.573c22.96 0 41.573 18.612 41.573 41.573s-18.613 41.573-41.573 41.573z" />
<glyph unicode="&#xe938;" glyph-name="supplier-groups" d="M823.82 605.592c54.738 0 99.528-10.382 133.555-32.055 42.387-26.998 65.428-70.061 66.323-124.143l0.020-1.642 0.006-1.589v-167.9l-0.008-1.426c-0.456-44.069-20.985-85.507-55.762-112.609l-1.058-0.817-0.924-0.7-0.829-0.632-0.395-0.311c-12.196-9.669-19.502-24.228-19.976-39.708l-0.014-0.56-0.008-0.561-0.003-0.558-0.001-138.372-0.011-0.884c-0.56-24.912-20.93-44.854-45.889-44.854-24.818 0-45.080 19.711-45.876 44.397l-0.020 0.868-0.004 0.518v138.401l0.007 1.426c0.456 44.069 20.985 85.507 55.762 112.609l1.058 0.817 0.924 0.7 0.823 0.629 0.401 0.314c12.196 9.669 19.502 24.228 19.976 39.708l0.014 0.56 0.008 0.561 0.003 0.558v167.749l-0.006 1.243c-0.244 23.886-7.727 38.504-23.859 48.778-17.91 11.408-46.844 17.683-84.239 17.683-25.35 0-45.901 20.551-45.901 45.901s20.551 45.901 45.901 45.901zM510.913 685.557h1.744c60.478-0.263 111.984-13.663 150.561-40.167 46.129-31.694 71.237-80.353 72.214-140.345l0.022-1.821 0.007-1.777v-175.981l-0.008-1.449c-0.516-49.216-26.035-94.766-67.715-120.959l-1.268-0.788-1.223-0.742-2.863-1.718-0.72-0.44c-15.177-9.437-24.545-25.91-24.913-43.683l-0.008-0.544-0.003-0.624-0.001-172.505-0.011-0.884c-0.56-24.912-20.93-44.854-45.889-44.854-24.818 0-45.080 19.711-45.876 44.397l-0.018 0.75-0.006 0.636v172.534l0.007 1.449c0.516 49.218 26.034 94.766 67.715 120.959l1.268 0.788 1.223 0.742 2.761 1.657 0.874 0.535 0.41 0.257c14.748 9.382 23.893 25.461 24.435 42.843l0.014 0.549 0.008 0.544 0.003 0.624v175.848l-0.005 1.31c-0.28 30.994-10.862 52.217-32.422 67.029-22.55 15.494-57.388 24.029-100.356 24.029-42.966 0-77.805-8.535-100.356-24.029-21.399-14.703-31.986-35.724-32.413-66.296l-0.010-0.929-0.004-1.053v-175.339l0.009-0.929 0.010-0.468c0.464-17.635 9.711-33.873 24.554-43.236l0.461-0.287 0.464-0.283 0.541-0.322 3.428-2.016 1.252-0.746c42.532-25.629 68.914-71.272 69.948-120.92l0.024-1.506 0.007-1.444-0.001-171.937-0.011-0.884c-0.56-24.912-20.93-44.854-45.889-44.854-24.818 0-45.080 19.711-45.876 44.397l-0.018 0.75-0.006 0.754v171.774l-0.009 0.961-0.010 0.436c-0.469 17.817-9.903 34.207-25.017 43.526l-0.464 0.283-0.539 0.321-3.428 2.016-1.252 0.746c-42.532 25.627-68.914 71.271-69.948 120.92l-0.024 1.506-0.007 1.444v175.398l0.007 1.778c0.495 60.768 25.641 110.092 72.236 142.106 38.191 26.24 89.052 39.636 148.775 40.152l1.812 0.016h1.79zM282.831 166.285c24.818 0 45.080-19.711 45.876-44.397l0.020-0.868 0.005-0.636v-138.372l-0.012-0.884c-0.56-24.912-20.93-44.854-45.889-44.854-24.818 0-45.080 19.711-45.876 44.397l-0.018 0.75-0.006 0.636v138.49l0.011 0.884c0.56 24.912 20.93 44.854 45.889 44.854zM199.905 605.592c25.35 0 45.901-20.551 45.901-45.901s-20.551-45.901-45.901-45.901c-37.394 0-66.328-6.276-84.239-17.683-16.048-10.221-23.545-24.748-23.854-48.379l-0.007-0.719-0.003-0.846-0.001-167.703 0.008-0.981c0.259-15.958 7.723-30.939 20.232-40.717l0.444-0.343 1.639-1.242c34.982-26.805 55.814-68.090 56.63-112.174l0.019-1.337 0.006-1.282-0.001-138.372-0.011-0.884c-0.56-24.912-20.93-44.854-45.889-44.854-24.818 0-45.080 19.711-45.876 44.397l-0.020 0.868-0.004 0.518v138.205l-0.008 0.981c-0.259 15.958-7.723 30.939-20.232 40.717l-0.444 0.343-1.639 1.242c-34.982 26.805-55.814 68.090-56.63 112.174l-0.019 1.337-0.006 1.282v167.88l0.006 1.594c0.451 54.793 23.527 98.455 66.343 125.725 34.027 21.673 78.817 32.055 133.555 32.055zM740.894 166.285c24.818 0 45.080-19.711 45.876-44.397l0.018-0.75 0.006-0.636v-138.49l-0.011-0.884c-0.56-24.912-20.93-44.854-45.889-44.854-24.818 0-45.080 19.711-45.876 44.397l-0.020 0.868-0.005 0.636v138.372l0.012 0.884c0.56 24.912 20.93 44.854 45.889 44.854zM203.854 881.024c68.968 0 124.878-55.909 124.878-124.878s-55.909-124.878-124.878-124.878c-68.968 0-124.878 55.909-124.878 124.878s55.909 124.878 124.878 124.878zM819.871 881.024c68.968 0 124.878-55.909 124.878-124.878s-55.909-124.878-124.878-124.878c-68.968 0-124.878 55.909-124.878 124.878s55.909 124.878 124.878 124.878zM511.862 960c68.968 0 124.878-55.909 124.878-124.878s-55.909-124.878-124.878-124.878c-68.968 0-124.878 55.909-124.878 124.878s55.909 124.878 124.878 124.878zM203.854 789.221c-18.267 0-33.076-14.808-33.076-33.076s14.808-33.076 33.076-33.076c18.267 0 33.076 14.808 33.076 33.076s-14.808 33.076-33.076 33.076zM819.871 789.221c-18.267 0-33.076-14.808-33.076-33.076s14.808-33.076 33.076-33.076c18.267 0 33.076 14.808 33.076 33.076s-14.808 33.076-33.076 33.076zM511.862 868.199c-18.267 0-33.076-14.808-33.076-33.076s14.808-33.076 33.076-33.076c18.267 0 33.076 14.808 33.076 33.076s-14.808 33.076-33.076 33.076z" />
<glyph unicode="&#xe939;" glyph-name="successful-form-upload" d="M272.8 768c9.6 0 16 6.4 16 16s-6.4 16-16 16h-16c-9.6 0-16-6.4-16-16s6.4-16 16-16h16zM336.8 768c9.6 0 16 6.4 16 16s-6.4 16-16 16h-16c-9.6 0-16-6.4-16-16s6.4-16 16-16h16zM192.8 768h16c9.6 0 16 6.4 16 16s-6.4 16-16 16h-16c-9.6 0-16-6.4-16-16s6.4-16 16-16zM256.8 32c-9.6 0-16-6.4-16-16s6.4-16 16-16h16c9.6 0 16 6.4 16 16s-6.4 16-16 16h-16zM320.8 0h16c9.6 0 16 6.4 16 16s-6.4 16-16 16h-16c-9.6 0-16-6.4-16-16s6.4-16 16-16zM192.8 32c-9.6 0-16-6.4-16-16s6.4-16 16-16h16c9.6 0 16 6.4 16 16s-6.4 16-16 16h-16zM954.4 584l-67.2 67.2c-6.4 6.4-16 6.4-22.4 0l-73.6-73.6-48 9.6c-4.8 1.6-11.2 0-14.4-4.8l-102.4-102.4c-6.4-6.4-6.4-16 0-22.4 3.2-3.2 8-4.8 11.2-4.8s8 1.6 11.2 4.8l96 96 19.2-3.2-328-326.4-54.4-33.6c-4.8-3.2-6.4-6.4-8-11.2l-11.2-102.4c0-1.6 0-3.2 0-4.8v-1.6c0-1.6 1.6-4.8 3.2-6.4s3.2-3.2 4.8-3.2c1.6 0 4.8-1.6 6.4-1.6h1.6l102.4 11.2c4.8 0 9.6 3.2 11.2 8l33.6 54.4 428.8 428.8c3.2 3.2 4.8 6.4 4.8 11.2s-1.6 8-4.8 11.2zM471.2 100.8l-48-4.8 24 24c6.4 6.4 6.4 16 0 22.4s-16 6.4-22.4 0l-24-24 4.8 48 38.4 24 51.2-51.2-24-38.4zM514.4 164.8l-44.8 44.8 408 408 44.8-44.8-408-408zM816.8 144c-9.6 0-16-6.4-16-16v-160h-704v960h544v-144c0-9.6 6.4-16 16-16h144v-128c0-9.6 6.4-16 16-16s16 6.4 16 16v144c0 4.8-3.2 9.6-6.4 12.8l-156.8 156.8c-3.2 3.2-8 6.4-12.8 6.4-1.6 0-1.6 0-3.2 0h-572.8c-9.6 0-16-8-16-16v-992c0-9.6 6.4-16 16-16h736c9.6 0 16 6.4 16 16v176c0 9.6-6.4 16-16 16zM672.8 905.6l105.6-105.6h-105.6v105.6zM816.8 224c-9.6 0-16-6.4-16-16v-16c0-9.6 6.4-16 16-16s16 6.4 16 16v16c0 9.6-6.4 16-16 16zM816.8 384c-9.6 0-16-6.4-16-16v-96c0-9.6 6.4-16 16-16s16 6.4 16 16v96c0 9.6-6.4 16-16 16zM336.8 80c0 9.6-6.4 16-16 16h-128c-9.6 0-16-6.4-16-16s6.4-16 16-16h128c9.6 0 16 6.4 16 16zM640.8 32c-9.6 0-16-6.4-16-16s6.4-16 16-16h16c9.6 0 16 6.4 16 16s-6.4 16-16 16h-16zM720.8 32h-16c-9.6 0-16-6.4-16-16s6.4-16 16-16h16c9.6 0 16 6.4 16 16s-6.4 16-16 16zM560.8 16c0-9.6 6.4-16 16-16h16c9.6 0 16 6.4 16 16s-6.4 16-16 16h-16c-9.6 0-16-6.4-16-16zM720.8 96h-128c-9.6 0-16-6.4-16-16s6.4-16 16-16h128c9.6 0 16 6.4 16 16s-6.4 16-16 16zM375.2 683.2c-6.4 6.4-16 6.4-22.4 0l-62.4-65.6-16 19.2c-4.8 6.4-16 8-22.4 1.6-6.4-4.8-8-16-1.6-22.4l27.2-33.6c3.2-3.2 8-6.4 11.2-6.4 4.8 0 8 1.6 11.2 4.8l75.2 78.4c6.4 8 6.4 17.6 0 24zM375.2 491.2c-6.4 6.4-16 6.4-22.4 0l-62.4-65.6-16 19.2c-4.8 6.4-16 8-22.4 1.6-6.4-4.8-8-16-1.6-22.4l27.2-33.6c3.2-3.2 8-6.4 11.2-6.4 4.8 0 8 1.6 11.2 4.8l75.2 78.4c6.4 8 6.4 17.6 0 24zM416.8 848c0 9.6-6.4 16-16 16h-208c-9.6 0-16-6.4-16-16s6.4-16 16-16h208c9.6 0 16 6.4 16 16zM720.8 640c0 9.6-6.4 16-16 16h-256c-9.6 0-16-6.4-16-16s6.4-16 16-16h256c9.6 0 16 6.4 16 16zM640.8 592c0 9.6-6.4 16-16 16h-176c-9.6 0-16-6.4-16-16s6.4-16 16-16h176c9.6 0 16 6.4 16 16zM592.8 448c0 9.6-6.4 16-16 16h-128c-9.6 0-16-6.4-16-16s6.4-16 16-16h128c9.6 0 16 6.4 16 16zM448.8 416c-9.6 0-16-6.4-16-16s6.4-16 16-16h96c9.6 0 16 6.4 16 16s-6.4 16-16 16h-96z" />
<glyph unicode="&#xe93a;" glyph-name="login" d="M263 16h-141.614c-17.076 0-27.378 9.53-31.998 15.212-7.976 9.812-11.066 22.58-8.472 35.038 41.538 199.522 217.618 345.232 420.89 349.96 3.386-0.126 6.78-0.21 10.194-0.21 3.444 0 6.868 0.086 10.284 0.214 49.706-1.134 98.258-10.48 144.472-27.834 20.68-7.77 43.742 2.704 51.508 23.386 7.766 20.68-2.704 43.742-23.386 51.508-6.622 2.488-13.29 4.816-19.99 7.024 66.202 49.66 109.112 128.764 109.112 217.702 0 149.98-122.018 272-272 272s-272-122.020-272-272c0-89.018 42.984-168.184 109.286-217.836-60.742-19.996-117.742-51.092-167.626-92.124-91.464-75.234-155.058-180.172-179.064-295.486-7.524-36.132 1.488-73.244 24.726-101.816 23.12-28.432 57.406-44.738 94.064-44.738h141.614c22.092 0 40 17.908 40 40s-17.908 40-40 40zM320 688c0 105.87 86.13 192 192 192s192-86.13 192-192c0-102.734-81.108-186.876-182.652-191.77-3.114 0.056-6.228 0.104-9.348 0.104-3.128 0-6.254-0.046-9.378-0.102-101.53 4.908-182.622 89.044-182.622 191.768zM993.378 270.786c-17.122 38.3-55.69 63.116-98.352 63.214h-124.744c-0.090 0-0.174 0-0.266 0-45 0-84.26-26.52-100.058-67.614-2.102-5.468-4.672-12.356-7.354-20.386h-261.892c-10.814 0-21.166-4.378-28.7-12.136l-68.712-70.776c-15.134-15.588-15.058-40.406 0.17-55.9l70-71.224c7.52-7.652 17.8-11.962 28.528-11.962h130c22.092 0 40 17.908 40 40s-17.908 40-40 40h-113.228l-30.856 31.396 29.714 30.602h274.982c18.428 0 34.47 12.59 38.852 30.488 3.236 13.214 7.296 25.918 13.168 41.192 3.872 10.072 13.596 16.32 25.482 16.32 0.026 0 0.052 0 0.078 0h124.742c11.312-0.026 21.048-6.106 25.41-15.864 10.738-24.024 23.56-61.216 23.656-101.972 0.096-41.058-12.712-79.102-23.478-103.788-4.34-9.956-14.158-16.376-25.12-16.376-0.022 0-0.044 0-0.066 0h-126.25c-11.066 0.026-21.432 7.146-25.792 17.716-4.678 11.342-8.732 24.292-12.394 39.594-5.142 21.484-26.734 34.732-48.21 29.592-21.486-5.142-34.734-26.728-29.592-48.212 4.642-19.398 9.956-36.236 16.242-51.476 16.798-40.728 55.878-67.11 99.654-67.212h126.25c0.086 0 0.166 0 0.252 0 42.702 0.002 81.294 25.26 98.36 64.402 13.824 31.702 30.274 81.022 30.144 135.95-0.128 54.778-16.722 103.34-30.62 134.432zM902 136c0-22.091-17.909-40-40-40s-40 17.909-40 40c0 22.091 17.909 40 40 40s40-17.909 40-40z" />
</font>
</defs>
</svg>
